Классический форум-трекер
canvas not supported
Нас вместе: 4 215 939

Yuusha, Yamemasu | I'm Quitting Heroing | Перестану быть героем [2022, TV, 12 из 12 + 1 из 2 SP] WEBRip 1080p raw


 
 
RSS
Начать новую тему   Ответить на тему    Торрент-трекер NNM-Club -> Архив торрентов -> Архив Аниме
Автор Сообщение
хИНАРИх ®
Uploader 100+
Стаж: 6 лет 1 мес.
Сообщений: 946
Ratio: 16K
Раздал: 249.1 TB
Поблагодарили: 13524
100%
roody.gif
Yuusha, Yamemasu | I'm Quitting Heroing | Перестану быть героем
Жанр: фэнтези, комедия
Тип: TВ-сериал
Количество серий: 12 из 12 + 1 из 2 SP
Продолжительность: 12 серий по 24 минуты
Период выхода: с 05.04.2022 по 21.06.2022
Производство: EMT Squared
Режиссер: Нобута Ю
Снято по ранобэ: Yuusha, Yamemasu: Tsugi no Shokuba wa Maoujou
Автор оригинала: Квантум
Ссылки: World-Art, Ani-DB, MyAnimeList, Shikimori
Описание: Что делать бедолаге-герою, который спас людей от Короля демонов и остался не у дел? Все спасены, наступило то самое «долго и счастливо»... вот только не для могучего героя, который теперь никому не нужен. Отвергнутому людьми Леону Демонхарту не остаётся ничего иного, как податься к тому самому сверженному Королю демонов, чья армия разгромлена и нуждается в восстановлении.
Проблем, действительно, немало: недостаток финансирования, полная неорганизованность, отсутствие чётких стандартов и многое другое. Именно Леону, который не только силён, но и опытен, и предлагается решить все эти проблемы. Принявшись за работу, Леон вновь сталкивается с Ехидной и спрашивает её, зачем вообще она напала на мир людей. Услышанный им ответ оказывается крайне неожиданным!
Качество видео: WEBRip
Видео: AVC, 8 bit, 1920x1080, ~3100 Kb/s
Аудио: AAC, 2ch, 48 KHz, 160 Kb/s | Звук: Японский
Субтитры: Русские
Перевод от: [AniLibria]

Complete name : Yuusha Yamemasu - 01 [WEBRip 1080p].mkv
Format : Matroska
Format version : Version 4
File size : 549 MiB
Duration : 23 min 40 s
Overall bit rate : 3 246 kb/s
Movie name : [Tsundere-Raws] Yuusha Yamemasu - 01 VOSTFR (ADN) [WEB 1080p x264 AAC]
Encoded date : UTC 2022-04-14 14:41:13
Writing application : mkvmerge v56.1.0 ('My Friend') 64-bit
Writing library : libebml v1.4.2 + libmatroska v1.6.4

Video
ID : 1
Format : AVC
Format/Info : Advanced Video Codec
Format profile : High@L4.1
Format settings : CABAC / 4 Ref Frames
Format settings, CABAC : Yes
Format settings, Reference : 4 frames
Codec ID : V_MPEG4/ISO/AVC
Duration : 23 min 40 s
Bit rate : 3 100 kb/s
Width : 1 920 pixels
Height : 1 080 pixels
Display aspect ratio : 16:9
Frame rate mode : Constant
Frame rate : 23.976 (24000/1001) FPS
Color space : YUV
Chroma subsampling : 4:2:0
Bit depth : 8 bits
Scan type : Progressive
Bits/(Pixel*Frame) : 0.062
Stream size : 522 MiB (95%)
Writing library : x264 core 155 r2917 0a84d98
Encoding settings : cabac=1 / ref=4 / deblock=1:1:1 / analyse=0x3:0x113 / me=hex / subme=7 / psy=1 / psy_rd=0.40:0.00 / mixed_ref=1 / me_range=16 / chroma_me=1 / trellis=1 / 8x8dct=1 / cqm=0 / deadzone=21,11 / fast_pskip=1 / chroma_qp_offset=-2 / threads=24 / lookahead_threads=6 / sliced_threads=0 / nr=0 / decimate=1 / interlaced=0 / bluray_compat=0 / constrained_intra=0 / bframes=5 / b_pyramid=2 / b_adapt=2 / b_bias=0 / direct=1 / weightb=1 / open_gop=0 / weightp=2 / keyint=96 / keyint_min=9 / scenecut=0 / intra_refresh=0 / rc_lookahead=40 / rc=2pass / mbtree=1 / bitrate=3100 / ratetol=1.0 / qcomp=0.60 / qpmin=0 / qpmax=69 / qpstep=4 / cplxblur=20.0 / qblur=0.5 / vbv_maxrate=6200 / vbv_bufsize=3100 / nal_hrd=none / filler=0 / ip_ratio=1.40 / aq=1:0.60
Default : Yes
Forced : No

Audio
ID : 2
Format : AAC LC
Format/Info : Advanced Audio Codec Low Complexity
Codec ID : A_AAC-2
Duration : 23 min 40 s
Bit rate : 160 kb/s
Channel(s) : 2 channels
Channel layout : L R
Sampling rate : 48.0 kHz
Frame rate : 46.875 FPS (1024 SPF)
Compression mode : Lossy
Delay relative to video : -21 ms
Stream size : 27.2 MiB (5%)
Language : Japanese
Default : Yes
Forced : No

Text
ID : 3
Format : ASS
Codec ID : S_TEXT/ASS
Codec ID/Info : Advanced Sub Station Alpha
Duration : 23 min 23 s
Bit rate : 197 b/s
Count of elements : 377
Compression mode : Lossless
Stream size : 33.8 KiB (0%)
Title : Ru
Language : Russian
Default : Yes
Forced : No
01. My Next Interview`s at the Demon Queen`s Palace!
02. Strive to Ease the Burden on Your Future Self!
03. A Little Bit of Thought Goes a Long Way for Efficiency!
04. The Drinking Party from Hell
05. If You Want to Quit, Talk It Out First
06. The Hero Shares His Tale of Burden
07. A Good Warrior Isn`t Always a Good Boss
08. Tokyo, 2060 A.D.
09. I Want to Quit Heroing
10. I`ll Save the World, Even If That Means Destroying It
11. What Makes a Hero
12. I`m Quitting Heroing
SP1. Remember, the Work Trip Is First and Foremost a Learning Opportunity (Part 1)



Время раздачи: круглосуточно
[NNMClub.to]_Yuusha, Yamemasu -- Perestanu byit' geroem.torrent
 Торрент: Платиновая раздача  Зарегистрирован
 
Скачать


Примагнититься
 Зарегистрирован:   28 Июн 2022 04:09:23
 Размер:   6.66 GB  (
 Рейтинг:   4.2 (Голосов: 16)
 Поблагодарили:   51
 Проверка:   Оформление проверено модератором 28 Июн 2022 10:49:35
Как cкачать  ·  Как раздать  ·  Правильно оформить  ·  Поднять ратио!  
Топик был перенесен из форума Аниме (FullHD) в форум Архив Аниме

Причина переноса: На трекере доступна новая версия:
https://nnmclub.to/forum/viewtopic.php?t=1579227

Исправил релиз - напиши ЛС ElSwanko, дав ссылку на релиз.
Если нет ответа 24 часа - нажми на кнопку "Обратить внимание модераторов".
Показать сообщения:   
Начать новую тему   Ответить на тему    Торрент-трекер NNM-Club -> Архив торрентов -> Архив Аниме Часовой пояс: GMT + 3
Страница 1 из 1