Классический форум-трекер
canvas not supported
Нас вместе: 4 215 952

Tiger & Bunny 2 | Тигр и кролик 2 [2022, TV, 13 из 25] WEBRip 1080p raw


 
 
RSS
Начать новую тему   Ответить на тему    Торрент-трекер NNM-Club -> Архив торрентов -> Архив Аниме
Автор Сообщение
хИНАРИх ®
Uploader 100+
Стаж: 6 лет 1 мес.
Сообщений: 946
Ratio: 16K
Раздал: 249.1 TB
Поблагодарили: 13526
100%
roody.gif
Tiger & Bunny 2 | Тигр и кролик 2
Жанр: Приключения, фантастика
Тип: TВ-сериал
Количество серий: 13 из 25
Продолжительность: 25 серий по 25 минут
Период выхода: с 08.04.2022 по --.--.----
Производство: Bandai Namco Pictures
Режиссер: Касэ Мицуко
Сценарист: Нисида Масафуми
Ссылки: World-Art, Ani-DB, MyAnimeList, Shikimori
Описание: В Штернбилд-Сити люди всех рас и национальностей живут вместе с людьми со сверхчеловеческими способностями, называемыми NEXT, которые используют свои способности NEXT для поддержания мира. Герои носят логотипы спонсоров, помогают раскрывать преступления и спасать людей, чтобы улучшить имидж своих компаний и заработать очки героя. Их деятельность транслируется в популярном шоу «Герой ТВ», где герои пытаются подняться в ежегодном рейтинге и стремятся стать «Королем героев». Кабураги Т. Котецу и Барнаби Брукс-младший продолжают свою героическую деятельность, чтобы повысить имидж своей компании Apollon Media, а также сохранить мир. Система героев, зародившаяся в Штернбильд-сити, теперь используется во многих местах по всему миру. По мере того, как появляется все больше и больше героев, в Штернбильд-Сити входит новый герой. Теперь, когда они стали героями-ветеранами, смогут ли Котецу и Барнаби оправдать возложенные на них ожидания?!
Качество видео: WEBRip
Видео: AVC, 8 bit, 1920x1080, ~3118 Kb/s
Аудио: E-AC-3, 6ch, 48 KHz, 640 Kb/s | Звук: Японский
Субтитры: Русские
Перевод от: [Netflix]

Complete name : Tiger & Bunny 2 - 01 [1080p].mkv
Format : Matroska
Format version : Version 4
File size : 680 MiB
Duration : 25 min 17 s
Overall bit rate mode : Variable
Overall bit rate : 3 760 kb/s
Encoded date : UTC 2022-04-14 17:28:03
Writing application : mkvmerge v56.1.0 ('My Friend') 64-bit
Writing library : libebml v1.4.2 + libmatroska v1.6.4

Video
ID : 1
Format : AVC
Format/Info : Advanced Video Codec
Format profile : Main@L4
Format settings : CABAC / 3 Ref Frames
Format settings, CABAC : Yes
Format settings, Reference : 3 frames
Codec ID : V_MPEG4/ISO/AVC
Duration : 25 min 17 s
Bit rate mode : Variable
Bit rate : 3 118 kb/s
Nominal bit rate : 4 239 kb/s
Maximum bit rate : 6 960 kb/s
Width : 1 920 pixels
Height : 1 080 pixels
Display aspect ratio : 16:9
Frame rate mode : Constant
Frame rate : 23.976 (24000/1001) FPS
Color space : YUV
Chroma subsampling : 4:2:0
Bit depth : 8 bits
Scan type : Progressive
Bits/(Pixel*Frame) : 0.063
Stream size : 564 MiB (83%)
Writing library : x264 core 148 r2727 7d026e8
Encoding settings : cabac=1 / ref=3 / deblock=1:0:0 / analyse=0x1:0x111 / me=umh / subme=10 / psy=1 / psy_rd=1.00:0.00 / mixed_ref=1 / me_range=24 / chroma_me=1 / trellis=2 / 8x8dct=0 / cqm=0 / deadzone=21,11 / fast_pskip=1 / chroma_qp_offset=-2 / threads=8 / lookahead_threads=1 / sliced_threads=0 / nr=0 / decimate=1 / interlaced=0 / bluray_compat=0 / stitchable=1 / constrained_intra=0 / bframes=2 / b_pyramid=0 / b_adapt=2 / b_bias=0 / direct=3 / weightb=1 / open_gop=0 / weightp=2 / keyint=250 / keyint_min=23 / scenecut=0 / intra_refresh=0 / rc_lookahead=48 / rc=2pass / mbtree=1 / bitrate=4239 / ratetol=1.0 / qcomp=0.50 / qpmin=6 / qpmax=51 / qpstep=4 / cplxblur=20.0 / qblur=0.5 / vbv_maxrate=6960 / vbv_bufsize=9280 / nal_hrd=vbr / filler=0 / ip_ratio=1.40 / aq=1:1.00
Default : Yes
Forced : No

Audio
ID : 2
Format : E-AC-3
Format/Info : Enhanced AC-3
Commercial name : Dolby Digital Plus
Codec ID : A_EAC3
Duration : 25 min 17 s
Bit rate mode : Constant
Bit rate : 640 kb/s
Channel(s) : 6 channels
Channel layout : L R C LFE Ls Rs
Sampling rate : 48.0 kHz
Frame rate : 31.250 FPS (1536 SPF)
Compression mode : Lossy
Stream size : 116 MiB (17%)
Title : Japanese
Language : Japanese
Service kind : Complete Main
Default : Yes
Forced : No

Text
ID : 3
Format : UTF-8
Codec ID : S_TEXT/UTF8
Codec ID/Info : UTF-8 Plain Text
Duration : 23 min 56 s
Bit rate : 97 b/s
Count of elements : 326
Stream size : 17.1 KiB (0%)
Title : Russian
Language : Russian
Default : No
Forced : No

Menu
00:00:00.000 : Part 01
00:24:04.450 : Credits
01. Мудрый с полуслова поймет
02. Никогда не угадаешь, что пережил другой человек
03. У страха глаза велики
04. Не откладывай на завтра то, что можно сделать сегодня
05. Живи и дай жить другим
06. Дай дорогу молодым
07. Устами младенца глаголет истина
08. Не суди о книге по ее обложке
09. Готовь сани летом
10. Погибели предшествует гордость
11. Луч света в тёмном царстве
12. Хочешь рассмешить Бога, расскажи ему о своих планах
13. Вода камень точит



Время раздачи: круглосуточно
[NNMClub.to]_Tiger & Bunny 2 -- [Tigr i Krolik 2].torrent
 Торрент: Платиновая раздача  Зарегистрирован
 
Скачать


Примагнититься
 Зарегистрирован:   14 Апр 2022 21:04:31
 Размер:   7.24 GB  (
 Рейтинг:    (Голосов: 6)
 Поблагодарили:   11
 Проверка:   Оформление проверено модератором 14 Апр 2022 23:30:55
Как cкачать  ·  Как раздать  ·  Правильно оформить  ·  Поднять ратио!  
хИНАРИх ®
Uploader 100+
Стаж: 6 лет 1 мес.
Сообщений: 946
Ratio: 16K
Раздал: 249.1 TB
Поблагодарили: 13526
100%
roody.gif
Порядок просмотра: Первый фильм --> Первый сезон с 3-ей серии --> Второй фильм --> Второй сезон
хИНАРИх ®
Uploader 100+
Стаж: 6 лет 1 мес.
Сообщений: 946
Ratio: 16K
Раздал: 249.1 TB
Поблагодарили: 13526
100%
roody.gif
Ориентировочно: премьера второй части аниме-сериала состоится на Netflix 7 октября.
Топик был перенесен из форума Онгоинги в форум Архив Аниме

Причина переноса: На трекере доступна новая версия: https://nnmclub.to/forum/viewtopic.php?t=1543088

Исправил релиз - напиши ЛС RazorStorm, дав ссылку на релиз.
Если нет ответа 24 часа - нажми на кнопку "Обратить внимание модераторов".
Показать сообщения:   
Начать новую тему   Ответить на тему    Торрент-трекер NNM-Club -> Архив торрентов -> Архив Аниме Часовой пояс: GMT + 3
Страница 1 из 1