Классический форум-трекер
canvas not supported
Нас вместе: 4 215 983

Приключeния поросенка Фунтика (1986-1988) BDRemux [H.264/1080p]


 
 
RSS
Начать новую тему   Ответить на тему    Торрент-трекер NNM-Club -> Мультфильмы -> Отечественные Мультфильмы 20-го века (HD, FHD, UHD)
Автор Сообщение
LORDKILL ®
RG Всё лучшее - детям!
Стаж: 6 лет 3 мес.
Сообщений: 2475
Ratio: 495.372
Поблагодарили: 235958
100%
Приключения поросенка Фунтика (1986-1988) BDRemux [H.264/1080p]
Производство: СССР / ТО «Экран»
Жанр: мультфильм, короткометражка

Режиссер: Анатолий Солин
Актеры: Армен Джигарханян, Ирина Муравьёва, Ольга Аросева, Юрий Волынцев, Спартак Мишулин, Зоя Пыльнова, Анатолий Баранцев, Георгий Бурков, Борис Рунге, Андрей Колков, Раиса Мухаметшина

Описание:
Поросёнок Фунтик сбегает от своей хозяйки, госпожи Беладонны, злой и жадной владелицы универмага «Слеза ребёнка», потому что не хочет обманывать детей и ложью выманивать у них деньги для Беладонны. Хозяйка начинает безжалостно преследовать поросёнка, который приносил ей очень неплохой доход. Ей помогают тупой начальник полиции Фокстрот и суетливые сыщики Добер и Пинчер. Но Фунтик случайно встречает в лесу дядюшку Мокуса и Бамбино - циркачей и отправляется с ними в путешествие навстречу новой жизни...


Возраст: 0+ (для любой зрительской аудитории)

Релиз от: LORDKILL

Продолжительность: ~00:10:00 серия
Качество видео: BDRemux 1080p
Перевод: Не требуется
Субтитры: Отсутствуют

Видео: AVC/H.264, 1920x1080, ~15.9-17.7 Mbps
Аудио: AC3, 2 ch, 192 kbps - Русский
1. Неуловимый Фунтик (1986 г.)
2. Фунтик и сыщики (1986 г.)
3. Фунтик и старушка с усами (1987 г.)
4. Фунтик в цирке (1988 г.)
General
Unique ID : 306414871140074368461285163975204748128 (0xE6855B89EE8BC1EF94401A5F83E53B60)
Complete name : D:\РЕМУКС\ПРИКЛЮЧЕНИЯ ПОРОСЁНКА ФУНТИКА (1986-1988) BDRemux\01 - Неуловимый Фунтик (1986).mkv
Format : Matroska
Format version : Version 4
File size : 1.19 GiB
Duration : 10 min 35 s
Overall bit rate mode : Variable
Overall bit rate : 16.1 Mb/s
Movie name : Неуловимый Фунтик (1986) BDRemux - #LORDKILL#
Encoded date : UTC 2022-11-24 15:36:04
Writing application : mkvmerge v32.0.0 ('Astral Progressions') 64-bit
Writing library : libebml v1.3.7 + libmatroska v1.5.0

Video
ID : 1
Format : AVC
Format/Info : Advanced Video Codec
Format profile : High@L4
Format settings : CABAC / 2 Ref Frames
Format settings, CABAC : Yes
Format settings, Reference : 2 frames
Format settings, GOP : M=2, N=13
Codec ID : V_MPEG4/ISO/AVC
Duration : 10 min 35 s
Bit rate mode : Variable
Bit rate : 15.9 Mb/s
Maximum bit rate : 22.0 Mb/s
Width : 1 920 pixels
Height : 1 080 pixels
Display aspect ratio : 16:9
Frame rate mode : Constant
Frame rate : 24.000 FPS
Color space : YUV
Chroma subsampling : 4:2:0
Bit depth : 8 bits
Scan type : Progressive
Bits/(Pixel*Frame) : 0.320
Stream size : 1.18 GiB (99%)
Language : Russian
Default : Yes
Forced : No

Audio
ID : 2
Format : AC-3
Format/Info : Audio Coding 3
Commercial name : Dolby Digital
Codec ID : A_AC3
Duration : 10 min 35 s
Bit rate mode : Constant
Bit rate : 192 kb/s
Channel(s) : 2 channels
Channel layout : L R
Sampling rate : 48.0 kHz
Frame rate : 31.250 FPS (1536 SPF)
Compression mode : Lossy
Stream size : 14.6 MiB (1%)
Language : Russian
Service kind : Complete Main
Default : Yes
Forced : No
Скриншоты:


Все одноименные релизы в Клубе

Время раздачи: 24/7 (до появления первых 10 скачавших)
[NNMClub.to]_PRIKLYUCHENIYA POROSENKA FUNTIKA (1986-1988) BDRemux.torrent
 Торрент: Платиновая раздача  Зарегистрирован
 
Скачать


Примагнититься
 Зарегистрирован:   24 Ноя 2022 19:22:06
 Размер:   4.93 GB  (
 Рейтинг:   5 (Голосов: 24)
 Поблагодарили:   102
 Проверка:   Оформление проверено модератором 24 Ноя 2022 19:22:27
Как cкачать  ·  Как раздать  ·  Правильно оформить  ·  Поднять ратио!  
Показать сообщения:   
Начать новую тему   Ответить на тему    Торрент-трекер NNM-Club -> Мультфильмы -> Отечественные Мультфильмы 20-го века (HD, FHD, UHD) Часовой пояс: GMT + 3
Страница 1 из 1