Классический форум-трекер
canvas not supported
Нас вместе: 4 226 026

Настоящая легенда / True Legend / Su Qi-Er (2010) НDRip


Страницы:  1, 2  След. 
 
RSS
Начать новую тему   Ответить на тему    Торрент-трекер NNM-Club -> Архив торрентов -> Архив Видео. Кино, Театра, Муз.видео
Автор Сообщение
=Vetal= ®
Стаж: 14 лет 7 мес.
Сообщений: 646
Ratio: 33.613
Поблагодарили: 62943
100%
Настоящая легенда / True Legend / Su Qi-Er (2010) НDRip
Год выпуска: 2010
Производство: Китай / EDKO Film, Edko Management and Consulting, Focus Features
Жанр: Фэнтези, Боевик, Драма

Описание фильма:
Су, генерал в армии принца, устал от войн и покидает пост на самом взлете, оставив вместо себя своего сводного брата Юаня. Вместе с женой, родной сестрой Юаня, Су перебирается в провинцию, где вскоре у них рождается сын. Но Юань на самом деле уже давно и люто ненавидит семью Су, отец которого когда-то убил его собственного отца, и все эти годы изучал смертоносную технику кулака пяти ядов. И свой гнев он обрушит на Су, когда тот будет ожидать этого меньше всего.

Режиссер: Юйэнь Воо-пин
Актеры: Вэньчжо Чжао, Чжоу Сюнь, Энди Он, Го Сяодун, Джей Чоу, Мишель Йео, Фэн Сяоган, Дэвид Кэрредин, Кунг Ле, Цзя-Хуэй Лю

Продолжительность: 01:50:06
Качество видео: НDRip
Перевод: Дублированный
Роли дублировали: Пётр Иващенко, Наталья Фищук, Илья Хвостиков, Ирина Киреева, Александр Гаврилин, Владимир Антоник, Василий Дохненко, Борис Токарев, Александр Носков, Дмитрий Курта



Дата мировой премьеры: 9 февраля 2010
Дата российской премьеры: 23 сентября 2010, «Каравелла DDC»
Дата выхода DVD релиза: 13 октября 2010, «Кармен Видео»
Дата выхода Blu-Ray релиза: 13 октября 2010, «Кармен Видео»

Видеокодек: XviD
Битрейт видео: ~1499 Kb/s
Размер кадра: 720x304
Аудиокодек: AC3 5.1
Битрейт аудио: 384 Kb/s
Общее
Полное имя : Nastoyashaya.Legenda.2010.HDRip.avi
Формат : AVI
Формат/Информация : Audio Video Interleave
Размер файла : 1,46 Гбайт
Продолжительность : 1 ч. 50 м.
Общий поток : 1892 Кбит/сек
Название фильма : Nastoyashaya.Legenda.2010.D.DVDRip_Smallrip.Com
Режиссёр : smallz
Программа кодирования : VirtualDubMod 1.5.10.3 | www.virtualdub-fr.org || (build 2550/release)
Правообладатель : http://smallrip.com/

Видео
Идентификатор : 0
Формат : MPEG-4 Visual
Профиль формата : Advanced Simple@L5
Параметр BVOP формата : 1
Параметр QPel формата : Нет
Параметр GMC формата : Без точки перехода
Параметр матрицы формата : Выборочная
Идентификатор кодека : XVID
Идентификатор кодека/Подсказка : XviD
Продолжительность : 1 ч. 50 м.
Битрейт : 1499 Кбит/сек
Ширина : 720 пикселей
Высота : 304 пикселя
Соотношение сторон : 2,35:1
Частота кадров : 25,000 кадров/сек
Цветовое пространство : YUV
Субдискретизация насыщенности : 4:2:0
Битовая глубина : 8 бит
Тип развёртки : Прогрессивная
Метод сжатия : С потерями
Бит/(Пиксели*Кадры) : 0.274
Размер потока : 1,15 Гбайт (79%)
Библиотека кодирования : XviD 1.2.1 (UTC 2008-12-04)

Аудио
Идентификатор : 1
Формат : AC-3
Формат/Информация : Audio Coding 3
Расширение режима : CM (complete main)
Параметр Endianness формата : Big
Идентификатор кодека : 2000
Продолжительность : 1 ч. 50 м.
Вид битрейта : Постоянный
Битрейт : 384 Кбит/сек
Каналы : 6 каналов
Расположение каналов : Front: L C R, Side: L R, LFE
Частота : 48,0 КГц
Битовая глубина : 16 бит
Метод сжатия : С потерями
Размер потока : 302 Мбайт (20%)
Выравнивание : Разделение по промежуткам
Продолжительность промежутка : 40 мс. (1,00 видеокадр)
Время предзагрузки промежутка : 500 мс.
Скриншоты:

Время раздачи: 24/7 - круглосуточно
Реставрация от: Viсtоr
[NNM-Club.ru]_Nastoyashaya.Legenda.2010.HDRip.avi.torrent
 Торрент: Платиновая раздача  Зарегистрирован
 
Скачать


 Зарегистрирован:   17 Окт 2010 12:10:16
 Размер:   1.46 GB  (
 Рейтинг:   4.5 (Голосов: 31)
 Поблагодарили:   136
 Проверка:   Оформление проверено модератором 17 Окт 2010 17:33:21
Как cкачать  ·  Как раздать  ·  Правильно оформить  ·  Поднять ратио!  
=Vetal= ®
Стаж: 14 лет 7 мес.
Сообщений: 646
Ratio: 33.613
Поблагодарили: 62943
100%
Скорость пошла.
Andre Fortis
Почетный Муз-Эстет
Стаж: 14 лет 5 мес.
Сообщений: 3841
Ratio: 3.014
Поблагодарили: 7231
100%
pirates.png
=Vetal= писал(а):
решил опросить народ

Мы против данного опроса в этой теме.
Удаляйте опрос, создайте тему в соответсвующем разделе и там прикрепите его.

_________________
Don't be good, be Great.
Frantz
Стаж: 13 лет 2 мес.
Сообщений: 96
Ratio: 1.598
Поблагодарили: 1024
7.38%
Откуда: zT
ukraine.gif
Спасибо =)

_________________
Вы меня зовите - если меня на раздаче не будет!
oliinyk_mykola
Стаж: 16 лет 7 мес.
Сообщений: 25
Ratio: 3.745
7.99%
Откуда: Винница, Украина
ukraine.gif
Офигенный фильм !!! Любители Кунг - Фу, зацените обязательно!!!!

_________________
Победа UL над DL неизбежна как крах капитализма. (с) Неизвестный релизер.
NeguS_2008
Стаж: 15 лет 8 мес.
Сообщений: 34
Ratio: 17.586
Поблагодарили: 43
0.56%
russia.gif
хренли рассинхрон?
hempplanter
Стаж: 14 лет 3 мес.
Сообщений: 153
Ratio: 21.779
Поблагодарили: 158
100%
Откуда: Санкт-Петербург
russia.gif
мда. обидно, но рассинхрон действительно имеет место. ай-яй-яй :недовольный:
Paskuda
Стаж: 13 лет 11 мес.
Сообщений: 2
Ratio: 2.475
3.45%
фильм так себе.. качество нефакт что хд рип скорей всего двд рип.. + рассинхрон звука и видео очень кумарит..
newdisk
Стаж: 13 лет 2 мес.
Сообщений: 88
Ratio: 1.692
100%
Сказочное кун-фу кино для подростков.
Еле досмотрел эту мыльную оперу ниочем...
:огорчение:
shoguevara
Стаж: 14 лет 4 мес.
Сообщений: 9
Ratio: 3.185
100%
ussr.gif
Актерский состав доставляет)))
Ман Чук Чиу, Чжоу Сюнь, Мишель Йео, Фэн Сяоган, Энди Он, Цзянь Луи Ксиа, Джа Хуи Лью, Ка-Ян Леунг, Уилл Лью, Джей Чоу
c4n
Стаж: 15 лет 8 мес.
Сообщений: 37
Ratio: 1.19
8.03%
ukraine.gif
Битвы прикольно сделаны. Релизер поправь рассинхрон virtual dub / Audio / Interleaving - Delay 1500 ms и все становится в порядке.
sysop
Стаж: 13 лет 1 мес.
Сообщений: 210
Ratio: 11.217
80.53%
ussr.gif
Все тот же китайский бред ... вид с 2010 года ...
191442sacha
Стаж: 12 лет 10 мес.
Сообщений: 2
Ratio: 1.912
100%
СПАСИБО !!!
Топик был перенесен из форума Зарубежные Новинки (DVDRip) в форум Азиатское кино (DVDRip, SATRip, VHSRip)

222Alex222
Tank driver
Стаж: 12 лет 10 мес.
Сообщений: 3
Ratio: 57.755
100%
russia.gif
Звук не успевает за видео - смотреть не комфортно!

_________________
Александр
Показать сообщения:   
Начать новую тему   Ответить на тему    Торрент-трекер NNM-Club -> Архив торрентов -> Архив Видео. Кино, Театра, Муз.видео Часовой пояс: GMT + 3
Страницы:  1, 2  След.
Страница 1 из 2