Классический форум-трекер
canvas not supported
Нас вместе: 4 235 052

Светофор [2 сезон, 1 - 20 серии (20)] (2011) IPTVRip


Страницы:  1, 2  След. 
 
RSS
Начать новую тему   Ответить на тему    Торрент-трекер NNM-Club -> Архив торрентов -> Архив Сериалов и Архив Старого многосерийного кино до 90-х
Автор Сообщение
andr1525 ®
Покровитель талантов
Стаж: 13 лет 8 мес.
Сообщений: 2126
Ratio: 5.476
Поблагодарили: 171949
100%
russia.gif
Светофор [2 сезон, 1 - 20 серии (20)] (2011) IPTVRip
«Мужчины бывают трёх типов. Про этих трёх типов мы вам и расскажем»

Производитель: Yellow, Black&White
Жанр: Комедийный сериал
Перевод: Оригинал



Дата российской премьеры: 28 марта 2011
Дата мировой премьеры: 18 апреля 2011

Режиссер: Роман Фокин
Продюсеры: Виталий Шляппо, Алексей Троцюк, Эдуард Илоян, Сангаджи Тарбаев
Актеры: Ольга Медынич, Джемал Тетруашвили, Дмитрий Миллер, Ирина Низина, Сергей Лобынцев, Александр Никольский (II), Евгения Каверау и др.

Описание фильма:
«Светофор» — история о трех друзьях детства. Им слегка за 30. Они мужчины в самом расцвете сил. Один женат, другой занят, третий свободен, как ветер. Герои абсолютно не похожи, но их объединяют дружба и разная, но все же искренняя любовь к женщинам.
Продолжительность: ~ 00:24:00
Качество видео: IPTVRip
Видеокодек: MPEG-4 AVC/H.264
Битрейт видео: ~1369 Кбит/сек
Размер кадра: 720x400 (16:9)
Аудиокодек: MP3 2.0
Битрейт аудио: 48,0 КГц, 128 Кбит/сек
Общее
Полное имя : D:\Svetofor.s02.2011.XviD.IPTVRip\Svetofor.s02.e01.2011.XviD.IPTVRip..avi
Формат : AVI
Формат/Информация : Audio Video Interleave
Размер файла : 264 Мбайт
Продолжительность : 24 м.
Общий поток : 1507 Кбит/сек
Программа кодирования : VirtualDubMod 1.5.10.2 (build 2540/release)
Библиотека кодирования : VirtualDub build 32842/release

Видео
Идентификатор : 0
Формат : MPEG-4 Visual
Профиль формата : Advanced Simple@L5
Параметр BVOP формата : 2
Параметр QPel формата : Нет
Параметр GMC формата : Без точки перехода
Параметр матрицы формата : Default (H.263)
Режим смешивания : Сжатый битовый поток
Идентификатор кодека : XVID
Идентификатор кодека/Подсказка : XviD
Продолжительность : 24 м.
Битрейт : 1369 Кбит/сек
Ширина : 720 пикселей
Высота : 400 пикселей
Соотношение сторон : 16:9
Частота кадров : 25,000 кадров/сек
Цветовое пространство : YUV
Субдискретизация насыщенности : 4:2:0
Битовая глубина : 8 бит
Тип развёртки : Прогрессивная
Метод сжатия : С потерями
Бит/(Пиксели*Кадры) : 0.190
Размер потока : 240 Мбайт (91%)
Библиотека кодирования : XviD 1.2.1 (UTC 2008-12-04)

Аудио
Идентификатор : 1
Формат : MPEG Audio
Версия формата : Version 1
Профиль формата : Layer 3
Режим : Joint stereo
Расширение режима : MS Stereo
Идентификатор кодека : 55
Идентификатор кодека/Подсказка : MP3
Продолжительность : 24 м.
Вид битрейта : Постоянный
Битрейт : 128 Кбит/сек
Каналы : 2 канала
Частота : 48,0 КГц
Метод сжатия : С потерями
Размер потока : 22,4 Мбайт (8%)
Выравнивание : Соединение по промежуткам
Продолжительность промежутка : 40 мс. (1,00 видеокадр)
Время предзагрузки промежутка : 504 мс.

На роль Даши (дочери Севы и Тамары) пробовались 20 девочек.
В нескольких сериях можно было слышать, как по телевизору шёл отрывок из ситкома «Игрушки», а именно, песня из заставки этого сериала.
Исполнитель роли Севы (Александр Макогон) специально для съёмок сериала впервые прыгнул с парашютом, в тандеме с инструктором.

Скриншоты:

Время раздачи: С 18.00 до 23.00
[NNM-Club.ru]_Svetofor.s02.2011.XviD.IPTVRip.torrent
 Торрент: Платиновая раздача  Зарегистрирован
 
Скачать


Примагнититься
 Зарегистрирован:   13 Апр 2019 19:11:02
 Размер:   5.21 GB  (
 Рейтинг:   4.7 (Голосов: 115)
 Поблагодарили:   515
 Проверка:   Оформление проверено модератором 13 Апр 2019 23:05:25
Как cкачать  ·  Как раздать  ·  Правильно оформить  ·  Поднять ратио!  
andr1525 ®
Покровитель талантов
Стаж: 13 лет 8 мес.
Сообщений: 2126
Ratio: 5.476
Поблагодарили: 171949
100%
russia.gif
Торрент обновлен!
Добавленa 16-я серия!
Alcohanter
Стаж: 14 лет 4 мес.
Сообщений: 227
Ratio: 79.583
100%
написано обновленно , а на раздаче никого ......нажму позвать.

Добавлено спустя 2 минуты 20 секунд:

По этому Торренту сегодня уже был отправлен запрос с просьбой возобновить раздачу.

Следующая возможность послать повторный запрос будет через 7 часов(а) .

Пожалуйста, примите во внимание что позвать скачавших можно лишь один раз в сутки

о как , и все равно - тишина.....
andr1525 ®
Покровитель талантов
Стаж: 13 лет 8 мес.
Сообщений: 2126
Ratio: 5.476
Поблагодарили: 171949
100%
russia.gif
А на время раздачи посмотреть никак!
Metis352
Стаж: 14 лет 1 мес.
Сообщений: 21
Ratio: 4.479
Поблагодарили: 1
100%
andorra.gif
дорогие друзья, присоеденяюсь к раздаче, !! ))

_________________
Это вам не это
vovochka123
Стаж: 13 лет 1 мес.
Сообщений: 73
Ratio: 2.194
Поблагодарили: 419
Откуда: Карелия
russia.gif
Ещё серии будут?
Alcohanter
Стаж: 14 лет 4 мес.
Сообщений: 227
Ratio: 79.583
100%
что не качается них...ра ,соединяется и выдает ошибку - торрент не найден ?

Добавлено спустя 6 минут 49 секунд:

andr1525 писал(а): Перейти к сообщению
А на время раздачи посмотреть никак!

так вроде - Seeders: [ 63 (108 KB/s) ] ?!
спасибо огромное за раздачу ,сериал классный ...вот только скачать не могу ,все время ошибка вылетает...-:(
Alcohanter
Стаж: 14 лет 4 мес.
Сообщений: 227
Ratio: 79.583
100%
уупс ...приношу свои извинения ,все скачалось ...проблемма была у меня, место на диске неожиданно закончилось .....
nautilus_a
 
Стаж: 17 лет 4 мес.
Сообщений: 587
Ratio: 5.324
Поблагодарили: 1241
100%
australia.gif
а последнии серии вообще будут ?
asteawus
Стаж: 14 лет 3 мес.
Сообщений: 149
Ratio: 3.474
Поблагодарили: 17
100%
gabon.gif
nautilus_a писал(а): Перейти к сообщению
а последнии серии вообще будут ?

Судя по всему нет. Первый сезон тоже из 16-ти серий был.
wolvers
Стаж: 13 лет 7 мес.
Сообщений: 108
Ratio: 13.298
Поблагодарили: 1962
25.99%
Вроде как и первый сезон был из 20 серий... и второго сезона уже 17 и 18 есть...
andr1525 ®
Покровитель талантов
Стаж: 13 лет 8 мес.
Сообщений: 2126
Ratio: 5.476
Поблагодарили: 171949
100%
russia.gif
wolvers писал(а): Перейти к сообщению
Вроде как и первый сезон был из 20 серий... и второго сезона уже 17 и 18 есть...

Да, есть, с 17-20. Сегодня могу обновить раздачу, но раздача будет только завтра.

Добавлено спустя 1 час 40 минут 14 секунд:

Торрент обновлен!
Добавленa 17, 18, 19, 20-я серии!
Stitch777
Стаж: 12 лет 11 мес.
Сообщений: 287
Ratio: 33.006
100%
добротный сериал)
nexaker
Стаж: 13 лет 1 мес.
Сообщений: 4
Ratio: 9.894
14.75%
УРА!!!!!!!! неужели продолжение сезона)
спасибо!
dedmazai55
Стаж: 14 лет 4 мес.
Сообщений: 167
Ratio: 85.853
100%
Откуда: киров
russia.gif

_________________
Жизнь хороша,Жить хорошо,а Хорошо жить ещё лучше!!!
Показать сообщения:   
Начать новую тему   Ответить на тему    Торрент-трекер NNM-Club -> Архив торрентов -> Архив Сериалов и Архив Старого многосерийного кино до 90-х Часовой пояс: GMT + 3
Страницы:  1, 2  След.
Страница 1 из 2