Классический форум-трекер
canvas not supported
Нас вместе: 4 235 045

Гарри Поттер (Антология) / Harry Potter (Complete collection) (2001,2002,2004,2005,2007,2009,2010,2011) BDRip [H.264/720p]


Страницы:  1, 2, 3, 4  След. 
 
RSS
Начать новую тему   Ответить на тему    Торрент-трекер NNM-Club -> Коллекции / *логии -> Зарубежное кино (коллекции / *логии)
Автор Сообщение
andr1525 ®
Покровитель талантов
Стаж: 13 лет 8 мес.
Сообщений: 2126
Ratio: 5.476
Поблагодарили: 171949
100%
russia.gif
Гарри Поттер: Полная коллекция

Гарри Поттер и Философский камень / Harry Potter and the Sorcerer's Stone (2001) BDRip
«Путешествие в твою мечту»

Русское название: Гарри Поттер и Философский камень
Оригинальное название: Harry Potter and the Sorcerer's Stone
Год выпуска: 2001
Студия/Страна: Великобритания, США
Жанр: Фэнтези, Детектив, Приключения Семейный

Описание фильма:
Обычный лондонский мальчик Гарри Поттер на 11-м году жизни узнает, что он — осиротевший сын двух могущественных волшебников, и сам обладает магической силой.

В Хогвартской школе чародейства и волшебства Гарри попадает в водоворот невероятных приключений. Он изучает квиддич — спорт высшего пилотажа, играет в захватывающую игру живыми шахматными фигурами, встречается с Темным Волшебником, который хочет его уничтожить.

Режиссер: Крис Коламбус
Актеры: Дэниел Рэдклифф, Эмма Уотсон, Руперт Гринт, Ричард Харрис, Алан Рикман, Мэгги Смит, Робби Колтрейн, Саундерс Триплетс, Фиона Шоу, Гарри Меллинг, Ричард Гриффитс, Дерек Дэмэн, Ян Харт

Продолжительность: 02:32:21
Перевод: Дублированный
Язык субтитров: Русские (форсированные), Русские (полные), Английские
Вид субтитров: Вшитые, отключаемые



Дата мировой премьеры: 4 ноября 2001, ...
Дата российской премьеры: 21 марта 2002, «Каро-Премьер»
Дата выхода DVD релиза: 23 июня 2009, «Юниверсал Пикчерс Рус», ...
Дата выхода Blu-Ray релиза: 23 декабря 2008, «Юниверсал Пикчерс Рус», ...

Видеокодек: MPEG-4 AVC/H.264
Битрейт видео: ~6590 Кбит/сек
Размер кадра: 1280 х 532
Качество видео: BDRip
Аудиокодек: AC3, DTS
Аудио 1: Русский AC3 5.1 640 Кбит/сек 48,0 КГц |Дубляж BD CEE|
Аудио 2: Русский AC3 5.1 448 Кбит/сек 48,0 КГц |Многоголосый,"Кравец"|
Аудио 3: Русский AC3 5.1 448 Кбит/сек 48,0 КГц |Двухголосый, Петр Гланц и Инна Королева|
Аудио 4: Английский DTS 5.1 1510 Кбит/сек 48,0 КГц
Общее
Уникальный идентификатор : 251331845145855948374143061600354967336 (0xBD14C0ADF647D18E9900B5EED1C01F28)
Полное имя : D:\Harry.Potter.Collection.720p\1. Harry Potter and the Sorcerer's Stone 720p.mkv
Формат : Matroska
Версия формата : Version 2
Размер файла : 10,2 Гбайт
Продолжительность : 2 ч. 32 м.
Общий поток : 9626 Кбит/сек

Видео
Идентификатор : 1
Формат : AVC
Формат/Информация : Advanced Video Codec
Профиль формата : High@L4.1
Параметр CABAC формата : Да
Параметр ReFrames формата : 8 кадров
Режим смешивания : Header stripping
Идентификатор кодека : V_MPEG4/ISO/AVC
Продолжительность : 2 ч. 32 м.
Битрейт : 6590 Кбит/сек
Ширина : 1280 пикселей
Высота : 532 пикселя
Соотношение сторон : 2,40:1
Частота кадров : 23,976 кадра/сек
Цветовое пространство : YUV
Субдискретизация насыщенности : 4:2:0
Битовая глубина : 8 бит
Тип развёртки : Прогрессивная
Бит/(Пиксели*Кадры) : 0.404
Размер потока : 6,80 Гбайт (66%)

Аудио #1
Идентификатор : 2
Формат : AC-3
Формат/Информация : Audio Coding 3
Расширение режима : CM (complete main)
Режим смешивания : Header stripping
Идентификатор кодека : A_AC3
Продолжительность : 2 ч. 32 м.
Вид битрейта : Постоянный
Битрейт : 640 Кбит/сек
Каналы : 6 каналов
Расположение каналов : Front: L C R, Side: L R, LFE
Частота : 48,0 КГц
Битовая глубина : 16 бит
Метод сжатия : С потерями
Размер потока : 697 Мбайт (7%)
Заголовок : Rus (Dub -BD.CEE-)
Язык : Russian
Default : Да
Forced : Нет

Аудио #2
Идентификатор : 3
Формат : AC-3
Формат/Информация : Audio Coding 3
Расширение режима : CM (complete main)
Режим смешивания : Header stripping
Идентификатор кодека : A_AC3
Продолжительность : 2 ч. 32 м.
Вид битрейта : Постоянный
Битрейт : 448 Кбит/сек
Каналы : 6 каналов
Расположение каналов : Front: L C R, Side: L R, LFE
Частота : 48,0 КГц
Битовая глубина : 16 бит
Метод сжатия : С потерями
Размер потока : 488 Мбайт (5%)
Заголовок : Многоголосый, с DVD "Специальное Российское издание", перевод студии "Кравец"
Язык : Russian
Default : Нет
Forced : Нет

Аудио #3
Идентификатор : 4
Формат : AC-3
Формат/Информация : Audio Coding 3
Расширение режима : CM (complete main)
Режим смешивания : Header stripping
Идентификатор кодека : A_AC3
Продолжительность : 2 ч. 32 м.
Вид битрейта : Постоянный
Битрейт : 448 Кбит/сек
Каналы : 6 каналов
Расположение каналов : Front: L C R, Side: L R, LFE
Частота : 48,0 КГц
Битовая глубина : 16 бит
Метод сжатия : С потерями
Размер потока : 488 Мбайт (5%)
Заголовок : Двухголосый, Петр Гланц и Инна Королева
Язык : Russian
Default : Нет
Forced : Нет

Аудио #4
Идентификатор : 5
Формат : DTS
Формат/Информация : Digital Theater Systems
Режим смешивания : Header stripping
Идентификатор кодека : A_DTS
Продолжительность : 2 ч. 32 м.
Вид битрейта : Постоянный
Битрейт : 1510 Кбит/сек
Каналы : 6 каналов
Расположение каналов : Front: L C R, Side: L R, LFE
Частота : 48,0 КГц
Битовая глубина : 24 бит
Метод сжатия : С потерями
Размер потока : 1,61 Гбайт (16%)
Заголовок : Оригинальная дорожка
Язык : English
Default : Нет
Forced : Нет

Текст #1
Идентификатор : 6
Формат : UTF-8
Идентификатор кодека : S_TEXT/UTF8
Идентификатор кодека/Информация : UTF-8 Plain Text
Заголовок : Rus (forced)
Язык : Russian
Default : Да
Forced : Да

Текст #2
Идентификатор : 7
Формат : UTF-8
Идентификатор кодека : S_TEXT/UTF8
Идентификатор кодека/Информация : UTF-8 Plain Text
Заголовок : Rus (full)
Язык : Russian
Default : Нет
Forced : Нет

Текст #3
Идентификатор : 8
Формат : UTF-8
Идентификатор кодека : S_TEXT/UTF8
Идентификатор кодека/Информация : UTF-8 Plain Text
Заголовок : Eng
Язык : English
Default : Нет
Forced : Нет

Меню
00:00:00.000 : en:00:00:00.000
00:04:05.245 : en:00:04:05.245
00:08:10.990 : en:00:08:10.990
00:12:17.236 : en:00:12:17.236
00:18:25.104 : en:00:18:25.104
00:21:43.469 : en:00:21:43.469
00:24:41.480 : en:00:24:41.480
00:28:49.394 : en:00:28:49.394
00:31:05.030 : en:00:31:05.030
00:34:05.377 : en:00:34:05.377
00:37:49.434 : en:00:37:49.434
00:41:29.320 : en:00:41:29.320
00:46:13.270 : en:00:46:13.270
00:50:28.859 : en:00:50:28.859
00:55:04.301 : en:00:55:04.301
01:00:55.485 : en:01:00:55.485
01:03:43.653 : en:01:03:43.653
01:07:47.897 : en:01:07:47.897
01:13:49.091 : en:01:13:49.091
01:20:17.813 : en:01:20:17.813
01:23:54.363 : en:01:23:54.363
01:28:32.307 : en:01:28:32.307
01:31:42.330 : en:01:31:42.330
01:36:42.463 : en:01:36:42.463
01:42:34.648 : en:01:42:34.648
01:49:04.705 : en:01:49:04.705
01:53:21.461 : en:01:53:21.461
01:58:09.582 : en:01:58:09.582
02:03:44.584 : en:02:03:44.584
02:06:55.942 : en:02:06:55.942
02:10:55.181 : en:02:10:55.181
02:14:18.550 : en:02:14:18.550
02:17:29.408 : en:02:17:29.408
02:21:44.496 : en:02:21:44.496
02:24:10.642 : en:02:24:10.642
02:32:21.257 : en:02:32:21.257





Время раздачи: С 09.00 до 23.00


Обновлено!
Коллекция пересобрана, все внешние аудиодорожки и субтитры прикреплены к рипам.
Фильм
Гарри Поттер и Принц-полукровка обновлен на новый более качественный рип.
Фильм Гарри Поттер и Дары смерти: Часть II заменен Лицензией.

Всем приятного просмотра!
[NNMClub.to]_[NNM-Club.ru]_Harry.Potter.Collection.720p.torrent
 Торрент: Платиновая раздача  Зарегистрирован
 
Скачать


Примагнититься
 Зарегистрирован:   23 Июл 2019 15:51:40
 Размер:   70 GB  (
 Рейтинг:   4.9 (Голосов: 334)
 Поблагодарили:   1135
 Проверка:   Оформление проверено модератором 23 Июл 2019 16:36:37
Как cкачать  ·  Как раздать  ·  Правильно оформить  ·  Поднять ратио!  
Ronald_Poltava
Стаж: 16 лет 6 мес.
Сообщений: 179
Ratio: 3.248
Раздал: 4.345 TB
83.65%
Откуда: Poltava
ukraine.gif
Ща оценим 2 последних части....
Буду на раздаче неопределённое время.
Скорость отдачи 80Мбит/сек ;)

ЗЫ: Seeder last seen: Never :кругом голова:
Поддайте газу!!!
dimicandum408
Стаж: 13 лет 7 мес.
Сообщений: 26
Ratio: 11.656
1.94%
вернитесь на раздачу плиз
uri19735
Стаж: 12 лет 10 мес.
Сообщений: 17
Ratio: 18.858
100%
russia.gif
Простите, не могу удержаться: где же на скриншотах наглядный рост от к серии к серии груди Гермионы? :цветок: :супер!: :респект: :подмигивание: :смущение:
Che13
Сталкер
Стаж: 17 лет 6 мес.
Сообщений: 9076
Ratio: 1325.065
Поблагодарили: 69787
100%
pirates.png
andr1525 писал(а):
Годы 1-8

а откуда 8 год взялся?
fender.
Стаж: 13 лет 10 мес.
Сообщений: 716
Ratio: 41.722
Поблагодарили: 37712
100%
russia.gif
Отличная раздача!! :клево: Спасибо!
andr1525 ®
Покровитель талантов
Стаж: 13 лет 8 мес.
Сообщений: 2126
Ratio: 5.476
Поблагодарили: 171949
100%
russia.gif
fender.
Спасибо! :подмигивание:
evgei
Стаж: 13 лет 1 мес.
Сообщений: 12
Ratio: 1.695
77.7%
israel.gif
ЗОЛОТАЯ коллекция!!! А хдеее???
ssss129
Стаж: 13 лет
Сообщений: 34
Ratio: 12.324
1.43%
honduras.gif
Режисер нифига не Йетс в первых сериях. Ошибка в основном описании.
andr1525 ®
Покровитель талантов
Стаж: 13 лет 8 мес.
Сообщений: 2126
Ratio: 5.476
Поблагодарили: 171949
100%
russia.gif
ssss129 писал(а): Перейти к сообщению
Режисер нифига не Йетс в первых сериях. Ошибка в основном описании.

Может укажешь тогда в какой именно? Всё проверил, всё совпадает!
master1982
Стаж: 17 лет 5 мес.
Сообщений: 83
Ratio: 44.231
Поблагодарили: 1916
100%
ussr.gif
Блин, ну где культура оформления. Неужели сложно распихать файлы по папкам?
Часть 1, часть 3, часть 6, остальные свалены в кучу.

_________________
Говорю кратко, прошу мало, ухожу борзо.
andr1525 ®
Покровитель талантов
Стаж: 13 лет 8 мес.
Сообщений: 2126
Ratio: 5.476
Поблагодарили: 171949
100%
russia.gif
master1982
Потому что, остальные без дополнительных дорожек и прочего, а правила надо соблюдать!
Цитата:
* Запрещено раздавать папку, если в ней находится один файл.
master1982
Стаж: 17 лет 5 мес.
Сообщений: 83
Ratio: 44.231
Поблагодарили: 1916
100%
ussr.gif
Бредовое правило. это не должно касаться многосерийных фильмов. Потому что при закидывании в плейлист, автоматически это не выстроится.

_________________
Говорю кратко, прошу мало, ухожу борзо.
andr1525 ®
Покровитель талантов
Стаж: 13 лет 8 мес.
Сообщений: 2126
Ratio: 5.476
Поблагодарили: 171949
100%
russia.gif
master1982 писал(а): Перейти к сообщению
Бредовое правило.

Все вопросы по этому поводу к администрации трекера.
DenM4a1
Стаж: 13 лет
Сообщений: 71
Ratio: 61.675
Поблагодарили: 1
100%
Откуда: взялась жизнь? Статус: Забанен за шизофрению
russia.gif
Посмотрел все фильмы по отдельности :ангел:
Я б скачал, первые части очень интересные, только уже наизусть всё знаю :(
Показать сообщения:   
Начать новую тему   Ответить на тему    Торрент-трекер NNM-Club -> Коллекции / *логии -> Зарубежное кино (коллекции / *логии) Часовой пояс: GMT + 3
Страницы:  1, 2, 3, 4  След.
Страница 1 из 4