Классический форум-трекер
canvas not supported
Нас вместе: 4 235 091

Покахонтас / Pocahontas (1995) BDRip


 
 
RSS
Начать новую тему   Ответить на тему    Торрент-трекер NNM-Club -> Мультфильмы -> Зарубежные Мультфильмы 20-го века (SD)
Автор Сообщение
ra3wa ®
Модератор Видео
RG Releasers
Uploader 500+
Стаж: 14 лет
Сообщений: 16901
Ratio: 15K
Раздал: 719.8 TB
Поблагодарили: 3352380
100%
Откуда: Воронеж
russia.gif
Покахонтас / Pocahontas (1995) BDRip
Русское название: Покахонтас
Оригинальное название: Pocahontas
Производство: США
Год выпуска: 1995
Жанр: мультфильм, мюзикл, драма, мелодрама, семейный, история

Описание:
Из Европы отправляется в Новый Свет корабль с нашим героем Джоном Смитом. Экипаж, как объясняет капитан, плывет навстречу приключениям, успеху, богатству.Но сам капитан намерен найти там нечто вполне определенное - золото. А живут в Америке индейцы, и рассказ пойдет о благородной принцессе Покахонтас.

Режиссер: Майк Гэбриел, Эрик Голдберг
Персонажи: Мэл Гибсон, Кристиан Бэйл, Джуди Кун, Ирен Бедард, Дэвид Огден Стайерз, Джон Кассир, Рассел Минс, Линда Хант, Дэнни Манн, Билли Коннолли

Продолжительность: 01:21:08
Перевод: Дублированный



Видеокодек: Xvid
Битрейт видео: ~1955 Кбит/с
Размер кадра: 720х400
Качество видео: BDRip
Аудиокодек: AC3 5.1
Битрейт аудио: 448 Кбит/с

Награды и номинации
Общее
Полное имя : C:\Justlan\Покахонтас\Pokaxontas.avi
Формат : AVI
Формат/Информация : Audio Video Interleave
Размер файла : 1,37 Гбайт
Продолжительность : 1 ч. 21 м.
Общий поток : 2413 Кбит/сек
Программа кодирования : VirtualDubMod 1.5.10.3

Видео
Идентификатор : 0
Формат : MPEG-4 Visual
Профиль формата : Advanced Simple@L5
Параметр BVOP формата : 1
Параметр QPel формата : Нет
Параметр GMC формата : Без точки перехода
Параметр матрицы формата : Default (MPEG)
Режим смешивания : Сжатый битовый поток
Идентификатор кодека : XVID
Идентификатор кодека/Подсказка : XviD
Продолжительность : 1 ч. 21 м.
Битрейт : 1955 Кбит/сек
Ширина : 720 пикселей
Высота : 400 пикселей
Соотношение сторон : 16:9
Частота кадров : 23,976 кадра/сек
Цветовое пространство : YUV
Субдискретизация насыщенности : 4:2:0
Битовая глубина : 8 бит
Тип развёртки : Прогрессивная
Метод сжатия : С потерями
Бит/(Пиксели*Кадры) : 0.283
Размер потока : 1,11 Гбайт (81%)
Библиотека кодирования : XviD 64

Аудио
Идентификатор : 1
Формат : AC-3
Формат/Информация : Audio Coding 3
Расширение режима : CM (complete main)
Идентификатор кодека : 2000
Продолжительность : 1 ч. 21 м.
Вид битрейта : Постоянный
Битрейт : 448 Кбит/сек
Каналы : 6 каналов
Расположение каналов : Front: L C R, Side: L R, LFE
Частота : 48,0 КГц
Битовая глубина : 16 бит
Метод сжатия : С потерями
Размер потока : 260 Мбайт (19%)
Выравнивание : Разделение по промежуткам
Продолжительность промежутка : 42 мс. (1,00 видеокадр)
Время предзагрузки промежутка : 500 мс.
Скриншоты:

Время раздачи: Круглосуточно до 10 скачавших
[NNM-Club.ru]_Pokaxontas.avi.torrent
 Торрент: Платиновая раздача  Зарегистрирован
 
Скачать


Примагнититься
 Зарегистрирован:   21 Мар 2012 15:40:56
 Размер:   1.37 GB  (
 Рейтинг:   5 (Голосов: 98)
 Поблагодарили:   466
 Проверка:   Оформление проверено модератором 21 Мар 2012 16:09:58
Как cкачать  ·  Как раздать  ·  Правильно оформить  ·  Поднять ратио!  
Шишкин Рома
Стаж: 14 лет 3 мес.
Сообщений: 349
Ratio: 274.989
Поблагодарили: 2118
100%
Откуда: МедвеПутия
ussr.gif
А здесь Покахонтас 2: Открытие нового мира.
chernil41
Стаж: 13 лет 5 мес.
Сообщений: 4
Ratio: 1.789
Раздал: 335 GB
0%
russia.gif
спасибо!
ведъма
Стаж: 13 лет 2 мес.
Сообщений: 61
Ratio: 2.722
60.18%
Откуда: Алтайский край
russia.gif
аватар, ё моё
енотик классный
Показать сообщения:   
Начать новую тему   Ответить на тему    Торрент-трекер NNM-Club -> Мультфильмы -> Зарубежные Мультфильмы 20-го века (SD) Часовой пояс: GMT + 3
Страница 1 из 1