Классический форум-трекер
canvas not supported
Нас вместе: 4 235 068

Жизнь прекрасна / 50/50 (2011) [H.264/720p] BDRip


 
 
RSS
Начать новую тему   Ответить на тему    Торрент-трекер NNM-Club -> Зарубежное кино -> Зарубежные Фильмы (HD, FHD)
Автор Сообщение
andr1525 ®
Покровитель талантов
Стаж: 13 лет 8 мес.
Сообщений: 2126
Ratio: 5.476
Поблагодарили: 171949
100%
russia.gif
Жизнь прекрасна / 50/50 (2011) BDRip
«It takes a pair to beat the odds»

Русское название: Жизнь прекрасна
Оригинальное название: 50/50
Год выпуска: 2011
Производство: США / Marc Platt Productions
Жанр: драма, комедия, Биография

Описание фильма:
Молодой преуспевающий журналист Адам готовится выпустить сенсационную статью о вулканах в Европе. Он не курит, не пьет, ведёт здоровый образ жизни, не водит машину, потому что это опасно. Кроме того, у нашего героя есть всё для счастья: прекрасный дом, любимая девушка, хорошая работа.

Но вот беда: наполеоновским планам помешали неожиданные боли в спине. После визита к врачу Адам узнает страшную правду: у него рак спинного мозга с редкой мутацией хромосом, не поддающейся лечению. Что делать? Как жить дальше? Как не сойти с ума? Можно ли выйти победителем в битве с медленной смертью?

Режиссер: Джонатан Ливайн
Продюсер: Ивэн Голдберг, Бен Карлин, Сет Роген
Актеры: Джозеф Гордон-Левитт, Сет Роген, Анна Кендрик, Брайс Даллас Ховард, Анджелика Хьюстон, Серж Уд, Эндрю Эйрли, Мэтт Фрюэр, Филип Бейкер Холл, Донна Ямамото

Продолжительность: 01:40:03
Перевод: Многоголосый закадровый, профессиональный [Лицензия R5]
Язык субтитров: Русский (Voronine), Английский
Вид субтитров: Вшитые отключаемые



Дата мировой премьеры: 12 сентября 2011, ...
Дата выхода DVD релиза: 19 апреля 2012, «Новый Диск», ...

Видеокодек: MPEG-4 AVC/H.264
Битрейт видео: ~7500 Кбит/сек
Размер кадра: 1280 x 720
Качество видео: BDRip
Аудио 1: AC3 2.0, 48,0 КГц, ~224 Кбит/сек - Русский [Лицензия]
Аудио 2: DTS 5.1, 48,0 КГц, ~1510 Кбит/сек - Русский [Омикрон]
Аудио 3: DTS 5.1, 48,0 КГц, ~1510 Кбит/сек - Русский [Ozz.tv]
Аудио 4: DTS 5.1, 48,0 КГц, ~1510 Кбит/сек - Английский [Оригинал]
Общее
Уникальный идентификатор : 214691262356053082574641622421646915105 (0xA18408790B36C2A88FE8C36480A8B621)
Полное имя : D:\Zhizn.prekrasna.2011.BDRip.720p.mkv
Формат : Matroska
Версия формата : Version 2
Размер файла : 8,55 Гбайт
Продолжительность : 1 ч. 40 м.
Общий поток : 12,2 Мбит/сек
Дата кодирования : UTC 2012-04-17 16:11:09
Программа кодирования : mkvmerge v5.2.0 ('I can't explain') built on Dec 18 2011 18:12:03
Библиотека кодирования : libebml v1.2.3 + libmatroska v1.3.0

Видео
Идентификатор : 1
Формат : AVC
Формат/Информация : Advanced Video Codec
Профиль формата : High@L4.1
Параметр CABAC формата : Да
Параметр ReFrames формата : 9 кадров
Идентификатор кодека : V_MPEG4/ISO/AVC
Продолжительность : 1 ч. 40 м.
Битрейт : 7500 Кбит/сек
Ширина : 1280 пикселей
Высота : 720 пикселей
Соотношение сторон : 16:9
Частота кадров : 23,976 кадра/сек
Цветовое пространство : YUV
Субдискретизация насыщенности : 4:2:0
Битовая глубина : 8 бит
Тип развёртки : Прогрессивная
Бит/(Пиксели*Кадры) : 0.339
Размер потока : 5,06 Гбайт (59%)
Библиотека кодирования : x264 core 120 r2120 0c7dab9
Настройки программы : cabac=1 / ref=9 / deblock=1:-3:-3 / analyse=0x3:0x133 / me=tesa / subme=11 / psy=1 / psy_rd=1.10:0.10 / mixed_ref=1 / me_range=24 / chroma_me=1 / trellis=2 / 8x8dct=1 / cqm=0 / deadzone=21,11 / fast_pskip=0 / chroma_qp_offset=-3 / threads=12 / sliced_threads=0 / nr=0 / decimate=0 / interlaced=0 / bluray_compat=0 / constrained_intra=0 / bframes=7 / b_pyramid=2 / b_adapt=2 / b_bias=0 / direct=3 / weightb=1 / open_gop=0 / weightp=2 / keyint=250 / keyint_min=23 / scenecut=40 / intra_refresh=0 / rc=2pass / mbtree=0 / bitrate=7500 / ratetol=1.0 / qcomp=0.60 / qpmin=0 / qpmax=69 / qpstep=4 / cplxblur=20.0 / qblur=0.5 / ip_ratio=1.40 / pb_ratio=1.30 / aq=1:0.60
Язык : English
Default : Нет
Forced : Нет

Аудио #1
Идентификатор : 2
Формат : AC-3
Формат/Информация : Audio Coding 3
Расширение режима : CM (complete main)
Параметр Endianness формата : Big
Идентификатор кодека : A_AC3
Продолжительность : 1 ч. 40 м.
Вид битрейта : Постоянный
Битрейт : 224 Кбит/сек
Каналы : 2 канала
Расположение каналов : Front: L R
Частота : 48,0 КГц
Битовая глубина : 16 бит
Метод сжатия : С потерями
Задержка видео : 2 с. 0 мс.
Размер потока : 160 Мбайт (2%)
Заголовок : R5
Язык : Russian
Default : Да
Forced : Нет

Аудио #2
Идентификатор : 3
Формат : DTS
Формат/Информация : Digital Theater Systems
Идентификатор кодека : A_DTS
Продолжительность : 1 ч. 40 м.
Вид битрейта : Постоянный
Битрейт : 1510 Кбит/сек
Каналы : 6 каналов
Расположение каналов : Front: L C R, Side: L R, LFE
Частота : 48,0 КГц
Битовая глубина : 24 бит
Метод сжатия : С потерями
Размер потока : 1,06 Гбайт (12%)
Заголовок : Омикрон
Язык : Russian
Default : Нет
Forced : Нет

Аудио #3
Идентификатор : 4
Формат : DTS
Формат/Информация : Digital Theater Systems
Идентификатор кодека : A_DTS
Продолжительность : 1 ч. 40 м.
Вид битрейта : Постоянный
Битрейт : 1510 Кбит/сек
Каналы : 6 каналов
Расположение каналов : Front: L C R, Side: L R, LFE
Частота : 48,0 КГц
Битовая глубина : 24 бит
Метод сжатия : С потерями
Размер потока : 1,06 Гбайт (12%)
Заголовок : Ozz.tv
Язык : Russian
Default : Нет
Forced : Нет

Аудио #4
Идентификатор : 5
Формат : DTS
Формат/Информация : Digital Theater Systems
Идентификатор кодека : A_DTS
Продолжительность : 1 ч. 40 м.
Вид битрейта : Постоянный
Битрейт : 1510 Кбит/сек
Каналы : 6 каналов
Расположение каналов : Front: L C R, Side: L R, LFE
Частота : 48,0 КГц
Битовая глубина : 24 бит
Метод сжатия : С потерями
Размер потока : 1,06 Гбайт (12%)
Язык : English
Default : Нет
Forced : Нет

Текст #1
Идентификатор : 6
Формат : UTF-8
Идентификатор кодека : S_TEXT/UTF8
Идентификатор кодека/Информация : UTF-8 Plain Text
Заголовок : Voronine
Язык : Russian
Default : Да
Forced : Нет

Текст #2
Идентификатор : 7
Формат : UTF-8
Идентификатор кодека : S_TEXT/UTF8
Идентификатор кодека/Информация : UTF-8 Plain Text
Заголовок : Voronine (SDH)
Язык : Russian
Default : Нет
Forced : Нет

Текст #3
Идентификатор : 8
Формат : UTF-8
Идентификатор кодека : S_TEXT/UTF8
Идентификатор кодека/Информация : UTF-8 Plain Text
Язык : English
Default : Нет
Forced : Нет

Меню
00:00:00.000 : en:00:00:00.000
00:05:34.626 : en:00:05:34.626
00:10:11.903 : en:00:10:11.903
00:17:09.070 : en:00:17:09.070
00:23:20.524 : en:00:23:20.524
00:31:16.041 : en:00:31:16.041
00:38:12.665 : en:00:38:12.665
00:43:50.628 : en:00:43:50.628
00:50:55.761 : en:00:50:55.761
00:56:39.021 : en:00:56:39.021
01:03:00.443 : en:01:03:00.443
01:05:22.710 : en:01:05:22.710
01:10:44.240 : en:01:10:44.240
01:14:38.849 : en:01:14:38.849
01:20:35.372 : en:01:20:35.372
01:24:36.363 : en:01:24:36.363
01:28:27.302 : en:01:28:27.302
01:32:49.022 : en:01:32:49.022
Изначально Адама должен был играть Джеймс МакЭвой.
Джозеф Гордон-Левитт на самом деле постригся «под ноль» во время съёмок. Сцена была полностью сымпровизирована им и Сетом Рогеном, так как не была прописана в сценарии.
В одном из моментов с участием героини Анжелики Хьюстон, Адам упоминает фильм «Язык нежности», в котором главную роль исполнил Джек Николсон — бывший гражданский муж Хьюстон.
Скриншоты:


Время раздачи: С 10.00 до 23.00

[NNM-Club.ru]_Zhizn.prekrasna.2011.BDRip.720p.mkv.torrent
 Торрент: Платиновая раздача  Зарегистрирован
 
Скачать


Примагнититься
 Зарегистрирован:   14 Янв 2023 22:38:21
 Размер:   8.55 GB  (
 Рейтинг:   4.8 (Голосов: 73)
 Поблагодарили:   285
 Проверка:   Оформление проверено модератором 14 Янв 2023 23:57:40
Как cкачать  ·  Как раздать  ·  Правильно оформить  ·  Поднять ратио!  
MusicWanted
Стаж: 14 лет
Сообщений: 32
Ratio: 1.071
100%
Классный фильм
Alone_Kedr
Куратор Сериалов
Зам. Куратора Видео, Модератор Талантов, Uploader 500+,
DJ Настроения
Стаж: 10 лет 1 мес.
Сообщений: 14709
Ratio: 11K
Поблагодарили: 581026
100%
Откуда: CCCP
ussr.gif
Торрент перерегистрирован на трекере в рамках акции Включаем DHT в древних раздачах
Теперь вам нужно его скачать и открыть в торрент-клиенте, указав в качестве места сохранения раздаваемый файл или папку.
Показать сообщения:   
Начать новую тему   Ответить на тему    Торрент-трекер NNM-Club -> Зарубежное кино -> Зарубежные Фильмы (HD, FHD) Часовой пояс: GMT + 3
Страница 1 из 1