Классический форум-трекер
canvas not supported
Нас вместе: 4 235 314

Покахонтас / Pocahontas (1995) [1080p] BDRemux


 
 
RSS
Начать новую тему   Ответить на тему    Торрент-трекер NNM-Club -> Мультфильмы -> Зарубежные Мультфильмы 20-го века (HD, FHD, UHD)
Автор Сообщение
romul7731 ®
Стаж: 14 лет 2 мес.
Сообщений: 203
Ratio: 28.06
Раздал: 31.38 TB
Поблагодарили: 23323
100%
Откуда: Донбасс
ussr.gif
Покахонтас / Pocahontas (1995) [1080p] BDRemux
Русское название: Покахонтас
Оригинальное название: Pocahontas
Год выпуска: 1995
Жанр: мультфильм, мюзикл, драма, мелодрама, приключения, семейный, история

Вид субтитров: Вшитые отключаемые
Язык субтитров: Русские, английские



Режиссер: Майк Гэбриел, Эрик Голдберг
Персонажи: Мэл Гибсон, Кристиан Бэйл, Джуди Кун, Ирен Бедард, Дэвид Огден Стайерз, Джон, Кассир, Рассел Минс, Линда Хант, Дэнни Манн, Билли Коннолли

Описание фильма:
Из Европы отправляется в Новый Свет корабль с нашим героем Джоном Смитом. Экипаж, как объясняет капитан, плывет навстречу приключениям, успеху, богатству.
Но сам капитан намерен найти там нечто вполне определенное — золото. А живут в Америке индейцы, и рассказ пойдет о благородной принцессе Покахонтас.

Продолжительность: 01:21:09
Качество видео: BDRemux
Видеокодек: MPEG-4 AVC/H.264
Битрейт видео: ~22 Мбит/сек
Размер кадра: 1920х1080
Аудио: Русский (AC3, 6 ch, 640 Кбит/сек, 48,0 КГц) - Дубляж
Аудио: Русский (AC3, 6 ch, 640 Кбит/сек, 48,0 КГц) - Гаврилов
Аудио: Русский (AC3, 6 ch, 640 Кбит/сек, 48,0 КГц) - Живов
Аудио: Русский (AC3, 6 ch, 448 Кбит/сек, 48,0 КГц) - Многоголосый "Позитив Мультимедиа"
Аудио: Английский (DTS HD MA, 6 ch, 3100 Кбит/сек, 48,0 КГц)

За авторские переводы и многоголоску спасибо Skazhutin

Покахонтас NNM-club
Общее
Уникальный идентификатор : 209384372516368721354922386290049821678 (0x9D85F69A4741362DB8C43BF725042BEE)
Полное имя : D:\Мульти\Pocahontas.1995.BluRay.Remux.1080p.Rus.Eng.mkv
Формат : Matroska
Версия формата : Version 2
Размер файла : 15,9 Гбайт
Продолжительность : 1 ч. 21 м.
Режим общего битрейта : Переменный
Общий поток : 28,0 Мбит/сек
Название фильма : ~Sahaa~
Дата кодирования : UTC 2012-04-06 16:23:09
Программа кодирования : mkvmerge v4.0.0 ('The Stars were mine') сборка от Jun 6 2010 16:18:42
Библиотека кодирования : libebml v1.0.0 + libmatroska v1.0.0

Видео
Идентификатор : 1
Формат : AVC
Формат/Информация : Advanced Video Codec
Профиль формата : High@L4.1
Параметр CABAC формата : Да
Параметр ReFrames формата : 4 кадра
Идентификатор кодека : V_MPEG4/ISO/AVC
Продолжительность : 1 ч. 21 м.
Вид битрейта : Переменный
Битрейт : 22,0 Мбит/сек
Максимальный битрейт : 33,2 Мбит/сек
Ширина : 1920 пикселей
Высота : 1080 пикселей
Соотношение сторон : 16:9
Частота кадров : 23,976 кадра/сек
Цветовое пространство : YUV
Субдискретизация насыщенности : 4:2:0
Битовая глубина : 8 бит
Тип развёртки : Прогрессивная
Бит/(Пиксели*Кадры) : 0.442
Размер потока : 12,5 Гбайт (78%)
Default : Да
Forced : Нет

Аудио #1
Идентификатор : 2
Формат : AC-3
Формат/Информация : Audio Coding 3
Расширение режима : CM (complete main)
Параметр Endianness формата : Big
Идентификатор кодека : A_AC3
Продолжительность : 1 ч. 21 м.
Вид битрейта : Постоянный
Битрейт : 640 Кбит/сек
Каналы : 6 каналов
Расположение каналов : Front: L C R, Side: L R, LFE
Частота : 48,0 КГц
Битовая глубина : 16 бит
Метод сжатия : С потерями
Размер потока : 371 Мбайт (2%)
Заголовок : Дубляж
Язык : Russian
Default : Да
Forced : Нет

Аудио #2
Идентификатор : 3
Формат : AC-3
Формат/Информация : Audio Coding 3
Расширение режима : CM (complete main)
Параметр Endianness формата : Big
Идентификатор кодека : A_AC3
Продолжительность : 1 ч. 21 м.
Вид битрейта : Постоянный
Битрейт : 448 Кбит/сек
Каналы : 6 каналов
Расположение каналов : Front: L C R, Side: L R, LFE
Частота : 48,0 КГц
Битовая глубина : 16 бит
Метод сжатия : С потерями
Размер потока : 260 Мбайт (2%)
Заголовок : Многоголосый. Позитив Мультимедиа
Язык : Russian
Default : Нет
Forced : Нет

Аудио #3
Идентификатор : 4
Формат : AC-3
Формат/Информация : Audio Coding 3
Расширение режима : CM (complete main)
Параметр Endianness формата : Big
Идентификатор кодека : A_AC3
Продолжительность : 1 ч. 21 м.
Вид битрейта : Постоянный
Битрейт : 640 Кбит/сек
Каналы : 6 каналов
Расположение каналов : Front: L C R, Side: L R, LFE
Частота : 48,0 КГц
Битовая глубина : 16 бит
Метод сжатия : С потерями
Размер потока : 371 Мбайт (2%)
Заголовок : Ю. Живов
Язык : Russian
Default : Нет
Forced : Нет

Аудио #4
Идентификатор : 5
Формат : AC-3
Формат/Информация : Audio Coding 3
Расширение режима : CM (complete main)
Параметр Endianness формата : Big
Идентификатор кодека : A_AC3
Продолжительность : 1 ч. 21 м.
Вид битрейта : Постоянный
Битрейт : 640 Кбит/сек
Каналы : 6 каналов
Расположение каналов : Front: L C R, Side: L R, LFE
Частота : 48,0 КГц
Битовая глубина : 16 бит
Метод сжатия : С потерями
Размер потока : 371 Мбайт (2%)
Заголовок : А. Гаврилов
Язык : Russian
Default : Нет
Forced : Нет

Аудио #5
Идентификатор : 6
Формат : DTS
Формат/Информация : Digital Theater Systems
Профиль формата : MA / Core
Идентификатор кодека : A_DTS
Продолжительность : 1 ч. 21 м.
Вид битрейта : Переменный
Битрейт : 3100 Кбит/сек / 1510 Кбит/сек
Каналы : 6 каналов
Расположение каналов : Front: L C R, Side: L R, LFE
Частота : 48,0 КГц
Битовая глубина : 24 бит
Метод сжатия : Без потерь / Lossy
Заголовок : Английский
Язык : Russian
Default : Нет
Forced : Нет

Текст #1
Идентификатор : 7
Формат : UTF-8
Идентификатор кодека : S_TEXT/UTF8
Идентификатор кодека/Информация : UTF-8 Plain Text
Заголовок : Русские
Язык : Russian
Default : Нет
Forced : Нет

Текст #2
Идентификатор : 8
Формат : UTF-8
Идентификатор кодека : S_TEXT/UTF8
Идентификатор кодека/Информация : UTF-8 Plain Text
Заголовок : Английские
Язык : Russian
Default : Нет
Forced : Нет
Скриншоты:




Время раздачи: с 18:00 до 07:00 по Киеву
[NNM-Club.ru]_Pocahontas.1995.BluRay.Remux.1080p.Rus.Eng.mkv.torrent
 Торрент: Платиновая раздача  Зарегистрирован
 
Скачать


Примагнититься
 Зарегистрирован:   24 Июн 2012 01:28:40
 Размер:   15.9 GB  (
 Рейтинг:   4.5 (Голосов: 32)
 Поблагодарили:   85
 Проверка:   Оформление проверено модератором 24 Июн 2012 10:16:53
Как cкачать  ·  Как раздать  ·  Правильно оформить  ·  Поднять ратио!  
jenxp
Стаж: 15 лет 2 мес.
Сообщений: 20
Ratio: 2.295
Раздал: 1.066 TB
Поблагодарили: 3
100%
Откуда: Владикавказ
russia.gif
раздайте
Показать сообщения:   
Начать новую тему   Ответить на тему    Торрент-трекер NNM-Club -> Мультфильмы -> Зарубежные Мультфильмы 20-го века (HD, FHD, UHD) Часовой пояс: GMT + 3
Страница 1 из 1