Классический форум-трекер
canvas not supported
Нас вместе: 4 235 046

Не пойман - не вор / Inside Man (2006) [H.264] BDRip


 
 
RSS
Начать новую тему   Ответить на тему    Торрент-трекер NNM-Club -> Зарубежное кино -> Зарубежные Фильмы (SD)
Автор Сообщение
andr1525 ®
Покровитель талантов
Стаж: 13 лет 8 мес.
Сообщений: 2126
Ratio: 5.476
Поблагодарили: 171949
100%
russia.gif
Не пойман - не вор / Inside Man (2006) BDRip
«Хочешь ограбить банк - спроси у нас как»

Русское название: Не пойман - не вор
Оригинальное название: Inside Man
Год выпуска: 2006
Производство: США / 40 Acres & a Mule Filmworks, Imagine Entertainment, Universal Pictures
Жанр: Триллер, Драма, Криминал

Описание фильма:
История крутого полицейского, детектива Фрезьера, который сталкивается «на узкой дорожке» с хитрым грабителем банков Долтоном. Их противостояние выливается в напряженную драму с захватом заложников.
По мере того, как развивается эта игра в «кошки-мышки», на горизонте появляется еще одна загадочная фигура — брокер Мадалина, роль которой в разворачивающихся событиях остается до поры до времени совершенно непонятной. Мадалина вносит еще больше хаоса и нестабильности в и без того чрезвычайно хрупкую ситуацию…

Режиссер: Спайк Ли
Продюсер: Брайан Грейзер, Джонатан Филли, Карен Кехела
Актеры: Дензел Вашингтон, Клайв Оуэн, Джоди Фостер, Уиллем Дефо, Чиветел Иджиофор, Кристофер Пламмер, Джеймс Рэнсон, Дэвид Браун, Мишель ДиБенедетти, Питер Герети, Кен Леунг

Продолжительность: 02:08:00
Перевод: Профессиональный (полное дублирование) [Лицензия]
Язык субтитров: Русский, Английский
Вид субтитров: Вшитые отключаемые



Рейтинг R - Детям до 17 лет обязательно присутствие родителей

Дата мировой премьеры: 16 марта 2006, ...
Дата российской премьеры: 13 апреля 2006, «UIP»
Дата выхода DVD релиза: 25 сентября 2008, «Мьюзик-Трейд», ...

Видеокодек: MPEG-4 AVC/H.264
Битрейт видео: ~3970 Кбит/сек
Размер кадра: 1120 x 476
Качество видео: BDRip
Аудио 1: AC3 5.1, 48,0 КГц, ~448 Кбит/сек - Русский |Дубляж|
Аудио 2: AC3 5.1, 48,0 КГц, ~448 Кбит/сек - Английский |Оригинал|
Общее
Уникальный идентификатор : 240536026030204878352781401081140890033 (0xB4F58DB3B81FE186905B86065AC249B1)
Полное имя : H:\Inside.Man.2006.x264.BDRip.mkv
Формат : Matroska
Версия формата : Version 2
Размер файла : 4,37 Гбайт
Продолжительность : 2 ч. 8 м.
Общий поток : 4867 Кбит/сек
Дата кодирования : UTC 2011-09-16 09:28:42
Программа кодирования : mkvmerge v4.9.1 ('Ich will') сборка от Jul 11 2011 23:53:15
Библиотека кодирования : libebml v1.2.1 + libmatroska v1.1.1

Видео
Идентификатор : 1
Формат : AVC
Формат/Информация : Advanced Video Codec
Профиль формата : High@L4.1
Параметр CABAC формата : Да
Параметр ReFrames формата : 10 кадров
Идентификатор кодека : V_MPEG4/ISO/AVC
Продолжительность : 2 ч. 8 м.
Битрейт : 3970 Кбит/сек
Ширина : 1120 пикселей
Высота : 476 пикселей
Соотношение сторон : 2,35:1
Частота кадров : 23,976 кадра/сек
Цветовое пространство : YUV
Субдискретизация насыщенности : 4:2:0
Битовая глубина : 8 бит
Тип развёртки : Прогрессивная
Бит/(Пиксели*Кадры) : 0.311
Размер потока : 3,48 Гбайт (80%)
Библиотека кодирования : x264 core 116 r2074kMod 2641b9e
Настройки программы : cabac=1 / ref=10 / deblock=1:-3:-2 / analyse=0x3:0x113 / me=umh / subme=10 / psy=1 / fade_compensate=0.00 / psy_rd=1.00:0.20 / mixed_ref=1 / me_range=32 / chroma_me=1 / trellis=2 / 8x8dct=1 / cqm=0 / deadzone=21,11 / fast_pskip=0 / chroma_qp_offset=-4 / threads=6 / sliced_threads=0 / nr=0 / decimate=0 / interlaced=0 / bluray_compat=0 / constrained_intra=0 / bframes=15 / b_pyramid=2 / b_adapt=2 / b_bias=0 / direct=1 / weightb=1 / open_gop=0 / weightp=2 / keyint=250 / keyint_min=23 / scenecut=40 / intra_refresh=0 / rc_lookahead=40 / rc=2pass / mbtree=0 / bitrate=3970 / ratetol=1.0 / qcomp=0.65 / qpmin=0 / qpmax=69 / qpstep=4 / cplxblur=20.0 / qblur=0.5 / vbv_maxrate=50000 / vbv_bufsize=62500 / nal_hrd=none / ip_ratio=1.40 / pb_ratio=1.30 / aq=3:1.00 / zones=179067,185013,q=35
Язык : English
Default : Нет
Forced : Нет

Аудио #1
Идентификатор : 2
Формат : AC-3
Формат/Информация : Audio Coding 3
Расширение режима : CM (complete main)
Параметр Endianness формата : Big
Идентификатор кодека : A_AC3
Продолжительность : 2 ч. 8 м.
Вид битрейта : Постоянный
Битрейт : 448 Кбит/сек
Каналы : 6 каналов
Расположение каналов : Front: L C R, Side: L R, LFE
Частота : 48,0 КГц
Битовая глубина : 16 бит
Метод сжатия : С потерями
Размер потока : 412 Мбайт (9%)
Заголовок : Dub
Язык : Russian
Default : Да
Forced : Нет

Аудио #2
Идентификатор : 3
Формат : AC-3
Формат/Информация : Audio Coding 3
Расширение режима : CM (complete main)
Параметр Endianness формата : Big
Идентификатор кодека : A_AC3
Продолжительность : 2 ч. 8 м.
Вид битрейта : Постоянный
Битрейт : 448 Кбит/сек
Каналы : 6 каналов
Расположение каналов : Front: L C R, Side: L R, LFE
Частота : 48,0 КГц
Битовая глубина : 16 бит
Метод сжатия : С потерями
Размер потока : 412 Мбайт (9%)
Заголовок : Original
Язык : English
Default : Нет
Forced : Нет

Текст #1
Идентификатор : 4
Формат : UTF-8
Идентификатор кодека : S_TEXT/UTF8
Идентификатор кодека/Информация : UTF-8 Plain Text
Заголовок : Glanz
Язык : Russian
Default : Нет
Forced : Нет

Текст #2
Идентификатор : 5
Формат : UTF-8
Идентификатор кодека : S_TEXT/UTF8
Идентификатор кодека/Информация : UTF-8 Plain Text
Язык : English
Default : Нет
Forced : Нет

Меню
00:00:00.000 : en:Who, What, Where, When, Why
00:04:14.963 : en:Hostage Situation
00:13:08.162 : en:Smarter Than You
00:20:40.281 : en:Tactical Situation
00:25:32.573 : en:A Small Problem
00:30:25.699 : en:Satisfaction Guaranteed
00:35:44.392 : en:Asking a Favor
00:40:20.793 : en:List of Demands
00:45:32.730 : en:Negotiating
00:57:18.143 : en:Outside Influence
01:06:51.132 : en:Protecting Interests
01:12:34.767 : en:Cornered
01:17:26.851 : en:Buying Time
01:25:20.073 : en:No Options
01:30:47.859 : en:Bugged
01:36:22.235 : en:Going In
01:42:02.742 : en:Got Nothing
01:47:06.295 : en:Follow the Ring
01:56:05.500 : en:Searching for Truth
02:02:56.035 : en:End Titles
Съемки картины длились всего 39 дней. Джоди Фостер отработала свою роль еще быстрее – три недели (21 день).
Это четвертая совместная работа Спайка Ли и Дензела Вашингтона.
В конце фильма подруга персонажа Дензела Вашингтона читает книгу «Дневники Готэма», роман, который Спайк Ли написал совместно со своей женой Тоней Льюис Ли.
Скриншоты:


Время раздачи: С 10.00 до 23.00
[NNM-Club.ru]_Inside.Man.2006.x264.BDRip.mkv.torrent
 Торрент: Платиновая раздача  Зарегистрирован
 
Скачать


Примагнититься
 Зарегистрирован:   24 Июн 2012 20:23:57
 Размер:   4.37 GB  (
 Рейтинг:   4.9 (Голосов: 125)
 Поблагодарили:   504
 Проверка:   Оформление проверено модератором 24 Июн 2012 20:37:20
Как cкачать  ·  Как раздать  ·  Правильно оформить  ·  Поднять ратио!  
jyjcfvjt
Стаж: 14 лет 8 мес.
Сообщений: 7
Ratio: 5.404
40.88%
Хороший фильм
DartVader
Стаж: 16 лет 6 мес.
Сообщений: 11
Ratio: 7.932
2.97%
Откуда: Питер
russia.gif
Не смотря на рейтинг, скажу, что фильм отвратительный. Выглядит, как очень умный и запутанный детектив для ценителей жанра, а на деле получается набор еле связанных между собой сюжетов без логического завершения.

Знаете ли вы, что... Съемки картины длились всего 39 дней.

Этим все и сказано. Жалко потраченного времени, господа.
KoWMaPuK
Стаж: 16 лет 8 мес.
Сообщений: 235
Ratio: 13.481
Поблагодарили: 58
61.95%
ussr.gif
DartVader писал(а): Перейти к сообщению
Не смотря на рейтинг, скажу, что ........................................


Понятно что ты его не понял. Бывает. Господин. :D

_________________
Мы, русские, страшный народ – мы даже Гитлера до самоубийства довели(с)
varvar1
Стаж: 11 лет 1 мес.
Сообщений: 2
Ratio: 67.06
100%
Спасибо за что есть субтитрами!!!
diana12345mir
Стаж: 12 лет 1 мес.
Сообщений: 4
Ratio: 0.292
0.56%
Класс!
Показать сообщения:   
Начать новую тему   Ответить на тему    Торрент-трекер NNM-Club -> Зарубежное кино -> Зарубежные Фильмы (SD) Часовой пояс: GMT + 3
Страница 1 из 1