Классический форум-трекер
canvas not supported
Нас вместе: 4 235 067

Нокдаун / Cinderella Man (2005) [H.264] BDRip


 
 
RSS
Начать новую тему   Ответить на тему    Торрент-трекер NNM-Club -> Зарубежное кино -> Зарубежные Фильмы (SD)
Автор Сообщение
andr1525 ®
Покровитель талантов
Стаж: 13 лет 8 мес.
Сообщений: 2126
Ratio: 5.476
Поблагодарили: 171949
100%
russia.gif
Нокдаун / Cinderella Man (2005) BDRip
«When America was on its knees, he brought us to our feet.»

Русское название: Нокдаун
Оригинальное название: Cinderella Man
Год выпуска: 2005
Производство: Universal Pictures / Miramax Films / Imagine Entertainment - США
Жанр: Драма, Мелодрама

Описание фильма:
Потерпев несколько поражений кряду, подававший надежды боксер-тяжеловес Джим Брэддок вынужден бросить спорт. Во времена Великой депрессии Брэддок берется за любую работу, чтобы прокормить свою жену Мэй и детей. При этом он все еще надеется вернуться на ринг. И однажды ему предоставляется такой шанс. В последнюю минуту он заменяет другого боксера и выходит на поединок с претендентом на титул чемпиона мира.
Ко всеобщему изумлению, Брэддок побеждает уже в третьем раунде. Несмотря на то, что он весит меньше своих соперников и к тому же страдает от многочисленных травм, Джим продолжает драться и выигрывать. Апофеозом же его спортивной карьеры становится поединок с чемпионом мира Максом Баэром, убившим на ринге двух человек…

Режиссер: Рон Ховард
Актеры: Рассел Кроу, Рене Зельвегер, Коннор Прайс, Ник Смит, Мэттью Дж. Тэйлор, Пол Джаматти, Брюс МакГилл, Крэйг Бирко, Бойд Бэнкс, Пэдди Консидайн, Даррин Браун, Рон Канада, Фульвио Чечере

Продолжительность: 02:24:21
Перевод: Профессиональный (полное дублирование) [Лицензия]
Язык субтитров: Русский, Английский
Вид субтитров: Вшитые отключаемые

Топ 250: 55

Дата мировой премьеры: 23 мая 2005, ...
Дата российской премьеры: 15 сентября 2005, «Каскад»
Дата выхода DVD релиза: 26 октября 2010, «Уолт Дисней Компани СНГ», ...

Видеокодек: MPEG-4 AVC/H.264
Битрейт видео: ~2980 Кбит/сек
Размер кадра: 1120 x 476
Аудио 1: AC3 5.1, 48,0 КГц, ~448 Кбит/сек - Русский |Дубляж|
Аудио 2: AC3 5.1, 48,0 КГц, ~448 Кбит/сек - Русский |Двухголосый, Tycoon|
Аудио 3: AC3 5.1, 48,0 КГц, ~448 Кбит/сек - Английский |Оригинал|
Общее
Уникальный идентификатор : 197067387942339216147957751104892701740 (0x9441CC60AAF14AF9A21F4881CECA0C2C)
Полное имя : H:\Cinderella.Man.2005.x264.BDRip.mkv
Формат : Matroska
Версия формата : Version 2
Размер файла : 4,36 Гбайт
Продолжительность : 2 ч. 24 м.
Общий поток : 4324 Кбит/сек
Дата кодирования : UTC 2011-10-23 10:00:10
Программа кодирования : mkvmerge v5.0.0 ('Die Wahre Liebe') built on Sep 25 2011 20:33:49
Библиотека кодирования : libebml v1.2.2 + libmatroska v1.3.0

Видео
Идентификатор : 1
Формат : AVC
Формат/Информация : Advanced Video Codec
Профиль формата : High@L4.1
Параметр CABAC формата : Да
Параметр ReFrames формата : 11 кадров
Идентификатор кодека : V_MPEG4/ISO/AVC
Продолжительность : 2 ч. 24 м.
Битрейт : 2980 Кбит/сек
Ширина : 1120 пикселей
Высота : 476 пикселей
Соотношение сторон : 2,35:1
Частота кадров : 23,976 кадра/сек
Цветовое пространство : YUV
Субдискретизация насыщенности : 4:2:0
Битовая глубина : 8 бит
Тип развёртки : Прогрессивная
Бит/(Пиксели*Кадры) : 0.233
Размер потока : 2,92 Гбайт (67%)
Библиотека кодирования : x264 core 118 r2085kMod 8a62835
Настройки программы : cabac=1 / ref=11 / deblock=1:-2:-1 / analyse=0x3:0x113 / me=umh / subme=11 / psy=1 / fade_compensate=0.00 / psy_rd=0.90:0.15 / mixed_ref=1 / me_range=48 / chroma_me=1 / trellis=2 / 8x8dct=1 / cqm=0 / deadzone=21,11 / fast_pskip=0 / chroma_qp_offset=-3 / threads=4 / sliced_threads=0 / nr=0 / decimate=0 / interlaced=0 / bluray_compat=0 / constrained_intra=0 / bframes=14 / b_pyramid=2 / b_adapt=2 / b_bias=0 / direct=1 / weightb=1 / open_gop=0 / weightp=2 / keyint=240 / keyint_min=23 / scenecut=40 / intra_refresh=0 / rc_lookahead=40 / rc=2pass / mbtree=0 / bitrate=2980 / ratetol=1.0 / qcomp=0.65 / qpmin=0 / qpmax=69 / qpstep=4 / cplxblur=20.0 / qblur=0.5 / vbv_maxrate=50000 / vbv_bufsize=62500 / nal_hrd=none / ip_ratio=1.40 / pb_ratio=1.30 / aq=3:0.80 / zones=198125,207663,q=35
Язык : English
Default : Нет
Forced : Нет
Коэффициенты матрицы : BT.709-5, BT.1361, IEC 61966-2-4 709, SMPTE RP177

Аудио #1
Идентификатор : 2
Формат : AC-3
Формат/Информация : Audio Coding 3
Расширение режима : CM (complete main)
Параметр Endianness формата : Big
Идентификатор кодека : A_AC3
Продолжительность : 2 ч. 24 м.
Вид битрейта : Постоянный
Битрейт : 448 Кбит/сек
Каналы : 6 каналов
Расположение каналов : Front: L C R, Side: L R, LFE
Частота : 48,0 КГц
Битовая глубина : 16 бит
Метод сжатия : С потерями
Размер потока : 463 Мбайт (10%)
Заголовок : Dub
Язык : Russian
Default : Да
Forced : Нет

Аудио #2
Идентификатор : 3
Формат : AC-3
Формат/Информация : Audio Coding 3
Расширение режима : CM (complete main)
Параметр Endianness формата : Big
Идентификатор кодека : A_AC3
Продолжительность : 2 ч. 24 м.
Вид битрейта : Постоянный
Битрейт : 448 Кбит/сек
Каналы : 6 каналов
Расположение каналов : Front: L C R, Side: L R, LFE
Частота : 48,0 КГц
Битовая глубина : 16 бит
Метод сжатия : С потерями
Размер потока : 463 Мбайт (10%)
Заголовок : DVO Tycoon
Язык : Russian
Default : Нет
Forced : Нет

Аудио #3
Идентификатор : 4
Формат : AC-3
Формат/Информация : Audio Coding 3
Расширение режима : CM (complete main)
Параметр Endianness формата : Big
Идентификатор кодека : A_AC3
Продолжительность : 2 ч. 24 м.
Вид битрейта : Постоянный
Битрейт : 448 Кбит/сек
Каналы : 6 каналов
Расположение каналов : Front: L C R, Side: L R, LFE
Частота : 48,0 КГц
Битовая глубина : 16 бит
Метод сжатия : С потерями
Размер потока : 463 Мбайт (10%)
Заголовок : Original
Язык : English
Default : Нет
Forced : Нет

Текст #1
Идентификатор : 5
Формат : UTF-8
Идентификатор кодека : S_TEXT/UTF8
Идентификатор кодека/Информация : UTF-8 Plain Text
Заголовок : Tycoon
Язык : Russian
Default : Нет
Forced : Нет

Текст #2
Идентификатор : 6
Формат : UTF-8
Идентификатор кодека : S_TEXT/UTF8
Идентификатор кодека/Информация : UTF-8 Plain Text
Язык : Russian
Default : Нет
Forced : Нет

Текст #3
Идентификатор : 7
Формат : UTF-8
Идентификатор кодека : S_TEXT/UTF8
Идентификатор кодека/Информация : UTF-8 Plain Text
Язык : English
Default : Нет
Forced : Нет

Меню
00:00:00.000 : :1. The Next Champ
00:08:00.021 : :2. Past Due
00:16:23.023 : :3. Washed-Up
00:23:22.818 : :4. Decommissioned
00:28:37.382 : :5. Cut Off
00:38:53.039 : :6. Emergency Relief
00:44:00.179 : :7. One Last Chance
00:49:00.854 : :8. Going Hungry
00:58:43.686 : :9. Sizing Up the Champ
01:02:53.186 : :10. Back to Even
01:10:40.694 : :11. Getting Serious
01:14:48.275 : :12. Don't Back Down
01:22:51.299 : :13. Count Your Blessings
01:28:17.000 : :14. Know What You're Fighting For
01:36:17.938 : :15. Giving Hope
01:40:44.163 : :16. Find a Way Out
01:44:23.799 : :17. Tremendous Underdog
01:54:34.742 : :18. The Main Event
02:04:41.807 : :19. Championship Round
02:17:43.380 : :20. End Titles
Изначально планировалось, что картину поставит Ласс Халлстрем.
Во время одной из тренировок Рассел Кроу вывихнул плечо. Из-за этого пришлось отложить съемки на целых два месяца.
Соперниками Кроу на ринге были профессиональные боксеры. Для того чтобы убедить зрителя, свои удары они должны были останавливать настолько близко к телу Рассела, насколько это было возможно. Как и следовало ожидать, иногда актеру хорошенько доставалось.
Помимо остальных повреждений, Рассел Кроу получил сотрясения мозга и сломал несколько зубов.
Трудно поверить, но некоторое время женщина Пенни Маршалл намеревалась поставить фильм собственноручно. В итоге она ограничилась ролью продюсера.
Розмари Девитт, исполняющая роль соседки Сары Уилсон на самом деле приходится внучкой настоящему Джимми Брэддоку.
Слабые кассовые сборы картины стали причиной уникальной акции. Ряд кинотеатров пообещал возвращать деньги за билет тем покупателям, которым не понравится «Нокдаун».
Многие топовые актеры претендовали на роль Джимми Брэддока. Среди них: Клайв Оуэн, Мэтт Дэймон, Билли Боб Торнтон и Марк Уолберг.
У Макса Баэра были еврейские корни. На его спортивных трусах была вышита Звезда Давида, которую можно увидеть во время боев.
Для роли в фильме Расселл Кроу похудел на 22 кг.
Скриншоты:


Время раздачи: С 10.00 до 23.00

[NNM-Club.ru]_Cinderella.Man.2005.x264.BDRip.mkv.torrent
 Торрент: Платиновая раздача  Зарегистрирован
 
Скачать


Примагнититься
 Зарегистрирован:   24 Июн 2012 21:10:18
 Размер:   4.36 GB  (
 Рейтинг:   4.9 (Голосов: 61)
 Поблагодарили:   182
 Проверка:   Оформление проверено модератором 25 Июн 2012 15:39:34
Как cкачать  ·  Как раздать  ·  Правильно оформить  ·  Поднять ратио!  
av44
Стаж: 14 лет 7 мес.
Сообщений: 82
Ratio: 1.381
2.81%
хорошее кино всем советую
DEDA.xD
Стаж: 14 лет 2 мес.
Сообщений: 21
Ratio: 39.216
100%
Откуда: Мытищи
russia.gif
поддерживаю, кино отличное!!! Смотрел много раз

_________________
DarkNes02
Стаж: 14 лет 2 мес.
Сообщений: 7
Ratio: 6.428
7.81%
Очень хороший фильм!!!!!
просто супер!!!!!!
dima_punk
Стаж: 13 лет 4 мес.
Сообщений: 8
Ratio: 23.333
100%
belarus.gif
Великий фильм
sokol193
Стаж: 13 лет 10 мес.
Сообщений: 2637
Ratio: 1.032
Раздал: 1.426 TB
100%
Отличный фильм, смотрели вместе с женой. И хотя она не очень любит бокс, но тоже посмотрела с удовольствием...
McCoy77
Стаж: 13 лет 7 мес.
Сообщений: 4
Ratio: 3.654
4.73%
russia.gif
Йоу. Дайте скорости?
Показать сообщения:   
Начать новую тему   Ответить на тему    Торрент-трекер NNM-Club -> Зарубежное кино -> Зарубежные Фильмы (SD) Часовой пояс: GMT + 3
Страница 1 из 1