Классический форум-трекер
canvas not supported
Нас вместе: 4 235 069

Боец / The Fighter (2010) [H.264] BDRip


 
 
RSS
Начать новую тему   Ответить на тему    Торрент-трекер NNM-Club -> Зарубежное кино -> Зарубежные Фильмы (SD)
Автор Сообщение
andr1525 ®
Покровитель талантов
Стаж: 13 лет 8 мес.
Сообщений: 2126
Ratio: 5.476
Поблагодарили: 171949
100%
russia.gif
Боец / The Fighter (2010) BDRip
«Every dream deserves a fighting chance.»

Русское название: Боец
Оригинальное название: The Fighter
Год выпуска: 2010
Производство: Paramount Pictures / Mandeville Films / Edgartown Ventures, США
Жанр: Драма, Биография, Спорт

Описание фильма:
Невероятная, но реальная история пути к званию чемпиона мира боксера Микки Уорда по кличке «Ирландец». Восхождение Уорда было похоже на восхождение легендарного Рокки. Парень из народа, между боями он трудился на дорожных работах.

Пережив череду неудач и поражений, Микки сумел снова вернуться на ринг, когда его тренером стал сводный брат Дикки Эклунд, бывший боксер, карьера которого оборвалась из-за пристрастия к кокаину. Помощь брата, любовь официантки Шарлин, забота матери и несгибаемая воля к победе позволили Уорду взойти на мировой пьедестал…

Режиссер: Дэвид О. Расселл
Актеры: Кристиан Бэйл, Марк Уолберг, Мелисса Лео, Бонни Ааронс, Эми Адамс, Эл Конти, Сью Костелло, Кевин ДеКосте, Сюзанн Инглэнд, Рик Фуллер, Джек МакГи, Дэйл Плэйс, Кэрри Энн Куинн, Сальваторе Сантоне

Продолжительность: 01:55:38
Перевод: Профессиональный (полное дублирование) [Лицензия]
Язык субтитров: Русский, Английский, Испанский, Французский
Вид субтитров: Вшитые отключаемые



Дата мировой премьеры: 10 декабря 2010, ...
Дата российской премьеры: 23 февраля 2011, «Парадиз»
Дата выхода DVD релиза: 21 апреля 2011, «CP-Digital», ...
Дата выхода Blu-Ray релиза: 21 апреля 2011, «CP-Digital», ...

Видеокодек: MPEG-4 AVC/H.264
Битрейт видео: ~2704 Кбит/сек
Размер кадра: 1056 x 440
Качество видео: BDRip
Аудио 1: AC3 5.1, 48,0 КГц, ~448 Кбит/сек - Русский |Дубляж|
Аудио 2: AC3 5.1, 48,0 КГц, ~448 Кбит/сек - Английский |Оригинал|
Общее
Уникальный идентификатор : 244033329634498825933959609815417458490 (0xB7971C151CF3A8F79C2A6E267E038F3A)
Полное имя : H:\The.Fighter.H.264.BDRip.mkv
Формат : Matroska
Версия формата : Version 2
Размер файла : 2,91 Гбайт
Продолжительность : 1 ч. 55 м.
Общий поток : 3602 Кбит/сек
Название фильма : The.Fighter.2010
Дата кодирования : UTC 2011-04-15 20:17:45
Программа кодирования : mkvmerge v4.6.0 ('Still Crazy After All These Years') built on Mar 10 2011 02:50:32
Библиотека кодирования : libebml v1.2.0 + libmatroska v1.1.0
Attachment : Yes

Видео
Идентификатор : 1
Формат : AVC
Формат/Информация : Advanced Video Codec
Профиль формата : High@L4.0
Параметр CABAC формата : Да
Параметр ReFrames формата : 11 кадров
Идентификатор кодека : V_MPEG4/ISO/AVC
Продолжительность : 1 ч. 55 м.
Битрейт : 2704 Кбит/сек
Ширина : 1056 пикселей
Высота : 440 пикселей
Соотношение сторон : 2,40:1
Частота кадров : 23,976 кадра/сек
Цветовое пространство : YUV
Субдискретизация насыщенности : 4:2:0
Битовая глубина : 8 бит
Тип развёртки : Прогрессивная
Бит/(Пиксели*Кадры) : 0.243
Размер потока : 2,13 Гбайт (73%)
Заголовок : The.Fighter.2010
Библиотека кодирования : x264 core 114 r1913 5fd3dce
Настройки программы : cabac=1 / ref=11 / deblock=1:-3:-2 / analyse=0x3:0x113 / me=umh / subme=10 / psy=1 / psy_rd=0.90:0.05 / mixed_ref=1 / me_range=32 / chroma_me=1 / trellis=2 / 8x8dct=1 / cqm=0 / deadzone=21,11 / fast_pskip=0 / chroma_qp_offset=-3 / threads=6 / sliced_threads=0 / nr=0 / decimate=0 / interlaced=0 / constrained_intra=0 / bframes=9 / b_pyramid=2 / b_adapt=2 / b_bias=0 / direct=3 / weightb=1 / open_gop=0 / weightp=2 / keyint=250 / keyint_min=23 / scenecut=40 / intra_refresh=0 / rc_lookahead=60 / rc=2pass / mbtree=1 / bitrate=2704 / ratetol=1.0 / qcomp=0.60 / qpmin=0 / qpmax=69 / qpstep=4 / cplxblur=20.0 / qblur=0.5 / vbv_maxrate=25000 / vbv_bufsize=31250 / nal_hrd=none / ip_ratio=1.35 / aq=2:1.00 / zones=160980,166355,q=40
Язык : English
Default : Да
Forced : Нет
Коэффициенты матрицы : BT.709-5, BT.1361, IEC 61966-2-4 709, SMPTE RP177

Аудио #1
Идентификатор : 2
Формат : AC-3
Формат/Информация : Audio Coding 3
Расширение режима : CM (complete main)
Параметр Endianness формата : Big
Идентификатор кодека : A_AC3
Продолжительность : 1 ч. 55 м.
Вид битрейта : Постоянный
Битрейт : 448 Кбит/сек
Каналы : 6 каналов
Расположение каналов : Front: L C R, Side: L R, LFE
Частота : 48,0 КГц
Битовая глубина : 16 бит
Метод сжатия : С потерями
Размер потока : 371 Мбайт (12%)
Заголовок : Dubljaz R5, 48 kHz, AC3, 3/2 (L,C,R,l,r) + LFE ch, ~ 448.00 kbps
Язык : Russian
Default : Да
Forced : Нет

Аудио #2
Идентификатор : 3
Формат : AC-3
Формат/Информация : Audio Coding 3
Расширение режима : CM (complete main)
Параметр Endianness формата : Big
Идентификатор кодека : A_AC3
Продолжительность : 1 ч. 55 м.
Вид битрейта : Постоянный
Битрейт : 448 Кбит/сек
Каналы : 6 каналов
Расположение каналов : Front: L C R, Side: L R, LFE
Частота : 48,0 КГц
Битовая глубина : 16 бит
Метод сжатия : С потерями
Размер потока : 371 Мбайт (12%)
Заголовок : Original, 48 kHz, AC3, 3/2 (L,C,R,l,r) + LFE ch, ~ 448.00 kbps
Язык : English
Default : Нет
Forced : Нет

Текст #1
Идентификатор : 4
Формат : UTF-8
Идентификатор кодека : S_TEXT/UTF8
Идентификатор кодека/Информация : UTF-8 Plain Text
Язык : Russian
Default : Нет
Forced : Нет

Текст #2
Идентификатор : 5
Формат : UTF-8
Идентификатор кодека : S_TEXT/UTF8
Идентификатор кодека/Информация : UTF-8 Plain Text
Заголовок : SDH
Язык : English
Default : Нет
Forced : Нет

Текст #3
Идентификатор : 6
Формат : UTF-8
Идентификатор кодека : S_TEXT/UTF8
Идентификатор кодека/Информация : UTF-8 Plain Text
Язык : English
Default : Нет
Forced : Нет

Текст #4
Идентификатор : 7
Формат : UTF-8
Идентификатор кодека : S_TEXT/UTF8
Идентификатор кодека/Информация : UTF-8 Plain Text
Язык : Spanish
Default : Нет
Forced : Нет

Текст #5
Идентификатор : 8
Формат : UTF-8
Идентификатор кодека : S_TEXT/UTF8
Идентификатор кодека/Информация : UTF-8 Plain Text
Язык : French
Default : Нет
Forced : Нет

Меню
00:00:00.000 : en:Chapter 1
00:07:11.180 : en:Chapter 2
00:16:34.201 : en:Chapter 3
00:22:32.351 : en:Chapter 4
00:28:34.754 : en:Chapter 5
00:36:20.678 : en:Chapter 6
00:43:16.802 : en:Chapter 7
00:51:54.945 : en:Chapter 8
01:00:48.144 : en:Chapter 9
01:07:08.274 : en:Chapter 10
01:13:04.463 : en:Chapter 11
01:20:43.505 : en:Chapter 12
01:25:03.890 : en:Chapter 13
01:33:54.045 : en:Chapter 14
01:40:13.757 : en:Chapter 15
01:50:18.528 : en:Chapter 16
На роль Микки Уорда первоначально пробовался Майкл Фассбендер.
Кристиан Бэйл, дабы достичь большей достоверности в изображении кокаиниста Дикки Эклунда, сел на жесточайшую диету, питаясь лишь овощами и фруктами, хотя по контракту от него того не требовалось. Он настолько исхудал, что его партнёр Марк Уолберг публично выражал обеспокоенность состоянием его здоровья. Впрочем, Кристиану не впервой: подобной экзекуции он уже подвергал себя при работе над «Машинистом».
Актриса Мелисса Лео играет в фильме мать Бэйла, но в действительности старше Кристиана только на 13 полных лет.
Скриншоты:



Время раздачи: С 10.00 до 23.00

[NNM-Club.ru]_The.Fighter.H.264.BDRip.mkv.torrent
 Торрент: Платиновая раздача  Зарегистрирован
 
Скачать


Примагнититься
 Зарегистрирован:   29 Июн 2012 06:20:33
 Размер:   2.91 GB  (
 Рейтинг:   4.8 (Голосов: 88)
 Поблагодарили:   277
 Проверка:   Оформление проверено модератором 29 Июн 2012 10:13:12
Как cкачать  ·  Как раздать  ·  Правильно оформить  ·  Поднять ратио!  
Grafiden
Стаж: 14 лет 4 мес.
Сообщений: 69
Ratio: 78.163
100%
Откуда: Тюмень столица деревень
russia.gif
Посмотрим!
IVAN-S
Стаж: 13 лет 10 мес.
Сообщений: 10
Ratio: 0.588
100%
russia.gif
Фильм нормальный,НО СЕМЕЙКА главного героя БЕСИТ ВЕСЬ ФИЛЬМ.Вот  !Семь жирных коров,которые [ничего] не делают,мудаковАтый брат,сука мамаша-вот "идеал" американской семьи!
Показать сообщения:   
Начать новую тему   Ответить на тему    Торрент-трекер NNM-Club -> Зарубежное кино -> Зарубежные Фильмы (SD) Часовой пояс: GMT + 3
Страница 1 из 1