Классический форум-трекер
canvas not supported
Нас вместе: 4 235 053

Шерлок Холмс: Дилогия / Sherlock Holmes: Dilogy (2009-2011) [720p] BDRip


 
 
RSS
Начать новую тему   Ответить на тему    Торрент-трекер NNM-Club -> Коллекции / *логии -> Зарубежное кино (коллекции / *логии)
Автор Сообщение
andr1525 ®
Покровитель талантов
Стаж: 13 лет 8 мес.
Сообщений: 2126
Ratio: 5.476
Поблагодарили: 171949
100%
russia.gif
Шерлок Холмс: Дилогия / Sherlock Holmes: Dilogy (2009-2011) BDRip

Шерлок Холмс / Sherlock Holmes (2009) BDRip
«От них не скроешься»

Русское название: Шерлок Холмс
Оригинальное название: Sherlock Holmes
Год выпуска: 2009
Производство: Silver Pictures / Village Roadshow Pictures / Lin Pictures / Wigram Productions, Великобритания — США
Жанр: Боевик, Семейный, Драма, Комедия, Криминал, Детектив, Приключения
Перевод: Профессиональный (полное дублирование) [Лицензия]
Язык субтитров: Русский (надписи и пр.), Русский (R5), Русский (voronine), Русский (voronine, цветные), Русский (voronine, цветные, SDH), Английский , Английский (SDH)
Вид субтитров: Вшитые отключаемые

Дата мировой премьеры: 24 декабря 2009, ...
Дата российской премьеры: 31 декабря 2009, «Каро-Премьер»
Дата выхода DVD релиза: 6 апреля 2010, «Юниверсал Пикчерс Рус», ...
Дата выхода Blu-Ray релиза: 6 апреля 2010, «Юниверсал Пикчерс Рус», ...

Режиссер: Гай Ричи
Продюсер: Сьюзан Дауни, Дэн Лин, Джоэл Силвер, Лайонел Уиграм
Актеры: Роберт Дауни-мл. (Шерлок Холмс), Джуд Лоу (Доктор Ватсон), Рэйчел МакАдамс, Марк Стронг, Келли Райли, Эдди Марсэн, Ханс Мэтисон, Роберт Стоун, Уильям Хоуп, Роберт Мэйллет, Дэвид Гэррик

Описание фильма:
Величайший в истории сыщик Шерлок Холмс вместе со своим верным соратником Ватсоном вступают в схватку, требующую нешуточной физической и умственной подготовки, ведь их враг представляет угрозу для всего Лондона.



Рейтинг PG-13 - Детям до 13 лет просмотр не желателен

Топ 250: 152

Продолжительность: 02:08:24
Качество видео: BDRip

Видеокодек: MPEG-4 AVC/H.264
Битрейт видео: ~5353 Кбит/сек
Размер кадра: 1280 х 720
Аудио 1: AC3 5.1, 48,0 КГц, ~384 Кбит/сек - Русский |Дубляж, R5|
Аудио 2: AC3 5.1, 48,0 КГц, ~448 Кбит/сек - Русский |Одноголосый, Сербин|
Аудио 3: AC3 5.1, 48,0 КГц, ~640 Кбит/сек - Русский |Одноголосый, Гаврилов|
Аудио 4: AC3 5.1, 48,0 КГц, ~448 Кбит/сек - Русский |Многоголосый, BBC Saint-Petersburg|
Аудио 5: DTS5.1, 48,0 КГц, ~1510 Кбит/сек - Английский |Оригинал|
Общее
Уникальный идентификатор : 237668626565592550438213659783571192887 (0xB2CD4FFE529BA1C7B599839677643C37)
Полное имя : H:\Шерлок.Холмс.Дилогия.2009-2011.BDRip.720p\Sherlock.Holmes.2009.720p.BluRay.Rus.Eng..mkv
Формат : Matroska
Версия формата : Version 2
Размер файла : 7,88 Гбайт
Продолжительность : 2 ч. 8 м.
Общий поток : 8783 Кбит/сек
Дата кодирования : UTC 2011-12-25 09:59:53
Программа кодирования : mkvmerge v4.0.0 ('The Stars were mine') сборка от Jun 6 2010 16:18:42
Библиотека кодирования : libebml v1.0.0 + libmatroska v1.0.0

Видео
Идентификатор : 1
Формат : AVC
Формат/Информация : Advanced Video Codec
Профиль формата : High@L4.1
Параметр CABAC формата : Да
Параметр ReFrames формата : 8 кадров
Идентификатор кодека : V_MPEG4/ISO/AVC
Продолжительность : 2 ч. 8 м.
Битрейт : 5353 Кбит/сек
Ширина : 1280 пикселей
Высота : 720 пикселей
Соотношение сторон : 16:9
Частота кадров : 23,976 кадра/сек
Цветовое пространство : YUV
Субдискретизация насыщенности : 4:2:0
Битовая глубина : 8 бит
Тип развёртки : Прогрессивная
Бит/(Пиксели*Кадры) : 0.242
Размер потока : 4,65 Гбайт (59%)
Библиотека кодирования : x264 core 92 r1510 33d382a
Настройки программы : cabac=1 / ref=8 / deblock=1:-3:-3 / analyse=0x3:0x113 / me=umh / subme=10 / psy=1 / psy_rd=1.00:0.00 / mixed_ref=1 / me_range=32 / chroma_me=1 / trellis=2 / 8x8dct=1 / cqm=0 / deadzone=21,11 / fast_pskip=0 / chroma_qp_offset=-2 / threads=6 / sliced_threads=0 / nr=0 / decimate=0 / interlaced=0 / constrained_intra=0 / bframes=10 / b_pyramid=2 / b_adapt=2 / b_bias=0 / direct=3 / wpredb=1 / wpredp=2 / keyint=250 / keyint_min=25 / scenecut=40 / intra_refresh=0 / rc_lookahead=80 / rc=2pass / mbtree=1 / bitrate=5353 / ratetol=1.0 / qcomp=0.70 / qpmin=10 / qpmax=51 / qpstep=4 / cplxblur=20.0 / qblur=0.5 / ip_ratio=1.40 / aq=1:0.75
Язык : English
Default : Нет
Forced : Нет

Аудио #1
Идентификатор : 2
Формат : AC-3
Формат/Информация : Audio Coding 3
Расширение режима : CM (complete main)
Параметр Endianness формата : Big
Идентификатор кодека : A_AC3
Продолжительность : 2 ч. 8 м.
Вид битрейта : Постоянный
Битрейт : 384 Кбит/сек
Каналы : 6 каналов
Расположение каналов : Front: L C R, Side: L R, LFE
Частота : 48,0 КГц
Битовая глубина : 16 бит
Метод сжатия : С потерями
Размер потока : 353 Мбайт (4%)
Заголовок : Дубляж, R5
Язык : Russian
Default : Нет
Forced : Нет

Аудио #2
Идентификатор : 3
Формат : AC-3
Формат/Информация : Audio Coding 3
Расширение режима : CM (complete main)
Параметр Endianness формата : Big
Идентификатор кодека : A_AC3
Продолжительность : 2 ч. 8 м.
Вид битрейта : Постоянный
Битрейт : 448 Кбит/сек
Каналы : 6 каналов
Расположение каналов : Front: L C R, Side: L R, LFE
Частота : 48,0 КГц
Битовая глубина : 16 бит
Метод сжатия : С потерями
Размер потока : 411 Мбайт (5%)
Заголовок : AVO (Сербин)
Язык : Russian
Default : Нет
Forced : Нет

Аудио #3
Идентификатор : 4
Формат : AC-3
Формат/Информация : Audio Coding 3
Расширение режима : CM (complete main)
Параметр Endianness формата : Big
Идентификатор кодека : A_AC3
Продолжительность : 2 ч. 8 м.
Вид битрейта : Постоянный
Битрейт : 640 Кбит/сек
Каналы : 6 каналов
Расположение каналов : Front: L C R, Side: L R, LFE
Частота : 48,0 КГц
Битовая глубина : 16 бит
Метод сжатия : С потерями
Размер потока : 588 Мбайт (7%)
Заголовок : AVO (Гаврилов)
Язык : Russian
Default : Нет
Forced : Нет

Аудио #4
Идентификатор : 5
Формат : AC-3
Формат/Информация : Audio Coding 3
Расширение режима : CM (complete main)
Параметр Endianness формата : Big
Идентификатор кодека : A_AC3
Продолжительность : 2 ч. 8 м.
Вид битрейта : Постоянный
Битрейт : 448 Кбит/сек
Каналы : 6 каналов
Расположение каналов : Front: L C R, Side: L R, LFE
Частота : 48,0 КГц
Битовая глубина : 16 бит
Метод сжатия : С потерями
Задержка видео : 24 мс.
Размер потока : 411 Мбайт (5%)
Заголовок : (MVO) BBC Saint-Petersburg
Язык : Russian
Default : Нет
Forced : Нет

Аудио #5
Идентификатор : 6
Формат : DTS
Формат/Информация : Digital Theater Systems
Идентификатор кодека : A_DTS
Продолжительность : 2 ч. 8 м.
Вид битрейта : Постоянный
Битрейт : 1510 Кбит/сек
Каналы : 6 каналов
Расположение каналов : Front: L C R, Side: L R, LFE
Частота : 48,0 КГц
Битовая глубина : 24 бит
Метод сжатия : С потерями
Размер потока : 1,35 Гбайт (17%)
Заголовок : DTS 5.1 1536 kbps
Язык : English
Default : Нет
Forced : Нет

Текст #1
Идентификатор : 7
Формат : UTF-8
Идентификатор кодека : S_TEXT/UTF8
Идентификатор кодека/Информация : UTF-8 Plain Text
Заголовок : Forced
Язык : Russian
Default : Нет
Forced : Нет

Текст #2
Идентификатор : 8
Формат : UTF-8
Идентификатор кодека : S_TEXT/UTF8
Идентификатор кодека/Информация : UTF-8 Plain Text
Заголовок : R5
Язык : Russian
Default : Нет
Forced : Нет

Текст #3
Идентификатор : 9
Формат : UTF-8
Идентификатор кодека : S_TEXT/UTF8
Идентификатор кодека/Информация : UTF-8 Plain Text
Заголовок : Voronine
Язык : Russian
Default : Нет
Forced : Нет

Текст #4
Идентификатор : 10
Формат : UTF-8
Идентификатор кодека : S_TEXT/UTF8
Идентификатор кодека/Информация : UTF-8 Plain Text
Заголовок : Voronine Colored
Язык : Russian
Default : Нет
Forced : Нет

Текст #5
Идентификатор : 11
Формат : UTF-8
Идентификатор кодека : S_TEXT/UTF8
Идентификатор кодека/Информация : UTF-8 Plain Text
Заголовок : Voronine SDH Colored
Язык : Russian
Default : Нет
Forced : Нет

Текст #6
Идентификатор : 12
Формат : UTF-8
Идентификатор кодека : S_TEXT/UTF8
Идентификатор кодека/Информация : UTF-8 Plain Text
Язык : English
Default : Нет
Forced : Нет

Текст #7
Идентификатор : 13
Формат : UTF-8
Идентификатор кодека : S_TEXT/UTF8
Идентификатор кодека/Информация : UTF-8 Plain Text
Заголовок : SDH
Язык : English
Default : Нет
Forced : Нет

Меню
00:00:00.000 : en:Catching a Killer
00:06:46.531 : en:Case of Stagnation
00:11:30.231 : en:Telling About Mary
00:15:41.607 : en:Blow by Blow
00:19:08.898 : en:Last Request
00:23:29.074 : en:Bound Together
00:27:49.876 : en:Miss Adler For Hire
00:32:01.253 : en:The Irene I Know
00:37:08.434 : en:Resurrection
00:40:50.406 : en:Apt Prediction
00:44:37.216 : en:Sorcery and Science
00:47:39.690 : en:Meat or Potatoes?
00:50:52.174 : en:Giving Up the Ship
00:55:17.606 : en:Friends in High Places
00:59:04.457 : en:Blackwood's Lineage
01:03:04.781 : en:Mutual Danger
01:06:08.047 : en:Dead and Bath
01:11:14.103 : en:Remake the World
01:14:39.350 : en:On Purpose
01:17:36.318 : en:Lambs to Slaughter
01:23:35.093 : en:Trap For Three
01:26:06.953 : en:The Best You Can Do
01:30:57.160 : en:Next Target
01:35:15.376 : en:Smoking Out a Coward
01:39:45.980 : en:Countdown to Noon
01:44:18.002 : en:Bell and Death Tolls
01:48:21.954 : en:Cutting a Conjurer Loose
01:54:02.711 : en:My Weak Spot
01:56:07.502 : en:Moriarty's Mark
02:00:26.177 : en:End Credits
Во время съемок боевой сцены Роберт Мэйллет (бывший рестлер) случайно нокаутировал Роберта Дауни-младшего.
На ранней стадии производства картины планировалось, что роль Доктора Ватсона дадут Колину Фаррелу, однако позже режиссер отдал предпочтение кандидатуре Джуда Лоу.
На роль доктора Ватсона было рассмотрено свыше 20-ти актёров, среди них - Джон Кьюсак, Джерард Батлер и Крис Пайн.
События фильма предшествуют встрече профессора Мориарти и Шерлока Холмса, но при этом Ватсон уже помолвлен, что несколько противоречит событиям, описанным Артуром Конан Дойлем.
Роберт принял участие в создании гардероба сыщика и сам купил в лондонском магазине «Lock & Co» шляпу и трубку.
Съемки проходили в окрестностях Лондона и Манчестера, где сохранилось много живописных складских помещений XIX века. А интерьер дома 221б по Бейкер-стрит собрали из реквизита, который использовался для обустройства жилища Сириуса Блэка в фильме «Гарри Поттер и Орден Феникса».
Герои фильма говорят о радиоволнах. Термин «радио» впервые был использован в 1907 году.
В лаборатории Реордана Шерлок Холмс говорит о том, что ощущает запах «кэнди-флосс» («сахарные волоконца», сахарная вата). Это лакомство было изобретено в 1894 году, но впервые представлено публике только в 1904-м.
В одном из кадров мы видим здание Биг Бена и стоящее рядом с ним здание Портикулис (Portcullis House), где находятся кабинеты членов британского парламента. Портикулис был построен в 1993 году.
В числе прочих обвинений, на основе которых лорду Блэквуду произносят смертный приговор, звучит «занятие черной магией». После Закона о колдовстве 1735 года черная магия не считалась в Великобритании преступлением, караемым смертной казнью. Впрочем, по совокупности других лорд Блэквуд всё равно отправился бы на эшафот.
Главный злодей фильма - лорд Блэквуд, частично списан с легендарного оккультиста Алистера Кроули.
Движение в фильме правостороннее, а не левостороннее, как должно быть в Лондоне.

Скриншоты:

Шерлок Холмс: Игра теней / Sherlock Holmes: A Game of Shadows (2011) BDRip

Русское название: Шерлок Холмс: Игра теней
Оригинальное название: Sherlock Holmes: A Game of Shadows
Год выпуска: 2011
Производство: Lin Pictures / Silver Pictures / Village Roadshow Pictures / Warner Bros. Pictures / Wigram Productions, США
Жанр: Боевик, Триллер, Криминал, Детектив, Приключения
Перевод: Профессиональный (полное дублирование) [Лицензия]
Язык субтитров: Русский [Forced, Full, voronine], Английский [Full, SDH]
Вид субтитров: Вшитые отключаемые

Дата мировой премьеры: 10 декабря 2011, ...
Дата российской премьеры: 29 декабря 2011, «Каро-Премьер»
Дата выхода DVD релиза: 5 мая 2012, «CP Дистрибуция», ...
Дата выхода Blu-Ray релиза: 5 мая 2012, «CP Дистрибуция», ...

Режиссер: Гай Ричи
Продюсер: Сьюзан Дауни, Дэн Лин, Джоэл Силвер
Актеры: Роберт Дауни-мл., Джуд Лоу, Рэйчел МакАдамс, Рэй Донн, Стивен Фрай, Джаред Харрис, Джералдин Джеймс, Жиль Лелуш, Торстон Мандерлай, Эдди Марсэн, Дин Митчелл, Нуми Рапас, Келли Райли, Полин Стоун, Пол Уоррен

Описание фильма:
1891 год. В Вене и Страсбурге проходит серия терактов, организованных анархистами или националистами, а по всей Европе происходят таинственные убийства. Шерлок Холмс считает, что за всем этим стоит профессор Джеймс Мориарти — математический гений, автор знаменитых лекций и трудов.



Рейтинг PG-13 - Детям до 13 лет просмотр не желателен

Продолжительность: 02:08:44
Качество видео: BDRip

Видеокодек: MPEG-4 AVC/H.264
Битрейт видео: ~6128 Кбит/сек
Размер кадра: 1280 x 534
Аудио 1: AC3 5.1, 48,0 КГц, ~448 Кбит/сек - Русский |Дубляж, R5|
Аудио 2: DTS 5.1, 48,0 КГц, ~1510 Кбит/сек - Английский |Оригинал|
Общее
Уникальный идентификатор : 214547978988240767357662615874119189859 (0xA168700EB0231BD4B670F27BB73CC563)
Полное имя : H:\Шерлок.Холмс.Дилогия.2009-2011.BDRip.720p\Sherlock.Holmes.2.2011.D.BDRip.720p.mkv
Формат : Matroska
Версия формата : Version 2
Размер файла : 7,42 Гбайт
Продолжительность : 2 ч. 8 м.
Общий поток : 8250 Кбит/сек
Дата кодирования : UTC 2012-04-23 15:01:07
Программа кодирования : mkvmerge v5.5.0 ('Healer') built on Apr 6 2012 21:43:24
Библиотека кодирования : libebml v1.2.3 + libmatroska v1.3.0

Видео
Идентификатор : 1
Формат : AVC
Формат/Информация : Advanced Video Codec
Профиль формата : High@L4.1
Параметр CABAC формата : Да
Параметр ReFrames формата : 12 кадров
Идентификатор кодека : V_MPEG4/ISO/AVC
Продолжительность : 2 ч. 8 м.
Битрейт : 6128 Кбит/сек
Ширина : 1280 пикселей
Высота : 534 пикселя
Соотношение сторон : 2,40:1
Частота кадров : 23,976 кадра/сек
Цветовое пространство : YUV
Субдискретизация насыщенности : 4:2:0
Битовая глубина : 8 бит
Тип развёртки : Прогрессивная
Бит/(Пиксели*Кадры) : 0.374
Размер потока : 5,51 Гбайт (74%)
Библиотека кодирования : x264 core 122 r2184 5c85e0a
Настройки программы : cabac=1 / ref=12 / deblock=1:-3:-3 / analyse=0x3:0x133 / me=umh / subme=10 / psy=1 / psy_rd=1.00:0.00 / mixed_ref=1 / me_range=24 / chroma_me=1 / trellis=2 / 8x8dct=1 / cqm=0 / deadzone=21,11 / fast_pskip=0 / chroma_qp_offset=-2 / threads=12 / sliced_threads=0 / nr=0 / decimate=0 / interlaced=0 / bluray_compat=0 / constrained_intra=0 / bframes=8 / b_pyramid=2 / b_adapt=2 / b_bias=0 / direct=3 / weightb=1 / open_gop=0 / weightp=2 / keyint=250 / keyint_min=23 / scenecut=40 / intra_refresh=0 / rc_lookahead=60 / rc=crf / mbtree=1 / crf=15.5 / qcomp=0.70 / qpmin=0 / qpmax=69 / qpstep=4 / ip_ratio=1.40 / aq=1:0.80
Язык : English
Default : Да
Forced : Да

Аудио #1
Идентификатор : 2
Формат : AC-3
Формат/Информация : Audio Coding 3
Расширение режима : CM (complete main)
Параметр Endianness формата : Big
Идентификатор кодека : A_AC3
Продолжительность : 2 ч. 8 м.
Вид битрейта : Постоянный
Битрейт : 448 Кбит/сек
Каналы : 6 каналов
Расположение каналов : Front: L C R, Side: L R, LFE
Частота : 48,0 КГц
Битовая глубина : 16 бит
Метод сжатия : С потерями
Размер потока : 413 Мбайт (5%)
Заголовок : AC3 5.1 @ 448 kb/s [Russian DUB, Blu-ray EUR]
Язык : Russian
Default : Да
Forced : Да

Аудио #2
Идентификатор : 3
Формат : DTS
Формат/Информация : Digital Theater Systems
Идентификатор кодека : A_DTS
Продолжительность : 2 ч. 8 м.
Вид битрейта : Постоянный
Битрейт : 1510 Кбит/сек
Каналы : 6 каналов
Расположение каналов : Front: L C R, Side: L R, LFE
Частота : 48,0 КГц
Битовая глубина : 24 бит
Метод сжатия : С потерями
Размер потока : 1,36 Гбайт (18%)
Заголовок : DTS 5.1 @ 1510 kb/s [English]
Язык : English
Default : Нет
Forced : Нет

Текст #1
Идентификатор : 4
Формат : UTF-8
Идентификатор кодека : S_TEXT/UTF8
Идентификатор кодека/Информация : UTF-8 Plain Text
Заголовок : Russian [Forced, Blu-ray EUR]
Язык : Russian
Default : Да
Forced : Да

Текст #2
Идентификатор : 5
Формат : UTF-8
Идентификатор кодека : S_TEXT/UTF8
Идентификатор кодека/Информация : UTF-8 Plain Text
Заголовок : Russian [Full SDH, Blu-ray EUR]
Язык : Russian
Default : Нет
Forced : Нет

Текст #3
Идентификатор : 6
Формат : UTF-8
Идентификатор кодека : S_TEXT/UTF8
Идентификатор кодека/Информация : UTF-8 Plain Text
Заголовок : Russian [Full, voronine]
Язык : Russian
Default : Нет
Forced : Нет

Текст #4
Идентификатор : 7
Формат : UTF-8
Идентификатор кодека : S_TEXT/UTF8
Идентификатор кодека/Информация : UTF-8 Plain Text
Заголовок : English [Full]
Язык : English
Default : Нет
Forced : Нет

Текст #5
Идентификатор : 8
Формат : UTF-8
Идентификатор кодека : S_TEXT/UTF8
Идентификатор кодека/Информация : UTF-8 Plain Text
Заголовок : English [SDH]
Язык : English
Default : Нет
Forced : Нет

Меню
00:00:00.000 : en:00:00:00.000
00:09:18.266 : en:00:09:18.266
00:19:37.635 : en:00:19:37.635
00:30:46.845 : en:00:30:46.845
00:40:13.703 : en:00:40:13.703
00:50:29.026 : en:00:50:29.026
00:59:45.457 : en:00:59:45.457
01:09:20.823 : en:01:09:20.823
01:18:58.275 : en:01:18:58.275
01:30:08.695 : en:01:30:08.695
01:39:08.734 : en:01:39:08.734
01:49:50.375 : en:01:49:50.375
02:00:24.717 : en:02:00:24.717
Брэд Питт, Гари Олдман, Дэниел Дэй-Льюис, Шон Пенн и Хавьер Бардем рассматривались на роль профессора Мориарти.
Макияж Холмса в сцене разборки в поезде — это аллюзия на внешний вид Джокера в исполнении Хита Леджера («Темный рыцарь»).
В финальной части картины, Шерлок Холмс ставит профессору шах слоном, на что тот отвечает рокировкой. Устная партия, тем не менее, продолжается. По правилам, рокировка из-под шаха запрещена.
Скриншоты:


Время раздачи: С 10.00 до 23.00

[NNM-Club.ru]_SHerlok.Holms.Dilogiya.2009-2011.BDRip.720p.torrent
 Торрент: Платиновая раздача  Зарегистрирован
 
Скачать


 Зарегистрирован:   29 Июн 2012 08:30:16
 Размер:   15.3 GB  (
 Рейтинг:   4.8 (Голосов: 130)
 Поблагодарили:   406
 Проверка:   Оформление проверено модератором 29 Июн 2012 11:25:29
Как cкачать  ·  Как раздать  ·  Правильно оформить  ·  Поднять ратио!  
FM_Nick
Стаж: 13 лет 2 мес.
Сообщений: 170
Ratio: 6.915
47.43%
А можно psd обложек? :смущение:
ANDRKETZ
Стаж: 13 лет 5 мес.
Сообщений: 26
Ratio: 0.299
100%
ukraine.gif
Блеквуд больше подошел бы на Мориарти(ИМХО)
blackset
Стаж: 17 лет 1 мес.
Сообщений: 3
Ratio: 22.358
32.97%
russia.gif
друзья поддайте скорости а! весь днь не более 30-40 кб! этож   90-е какие-то
Показать сообщения:   
Начать новую тему   Ответить на тему    Торрент-трекер NNM-Club -> Коллекции / *логии -> Зарубежное кино (коллекции / *логии) Часовой пояс: GMT + 3
Страница 1 из 1