Классический форум-трекер
canvas not supported
Нас вместе: 4 235 207

Брестская крепость (2010) [H.264] BDRip


 
 
RSS
Начать новую тему   Ответить на тему    Торрент-трекер NNM-Club -> Отечественное кино -> Отечественные Фильмы (SD)
Автор Сообщение
andr1525 ®
Покровитель талантов
Стаж: 13 лет 8 мес.
Сообщений: 2126
Ratio: 5.476
Поблагодарили: 171956
100%
russia.gif
Брестская крепость (2010) BDRip
«Я умираю, но не сдаюсь!»

Русское название: Брестская крепость
Год выпуска: 2010
Производство: Централ Партнершип / Беларусьфильм - Россия, Беларусь
Жанр: Драма, Военный

Описание фильма:
Фильм рассказывает о героической обороне Брестской крепости, которая приняла на себя первый удар немецко-фашистских захватчиков 22 июня 1941 года. С документальной точностью описываются события, происходившие в первые дни обороны. Фильм рассказывает о главных трёх очагах сопротивления, возглавляемых командиром полка Петром Гавриловым, комиссаром Ефимом Фоминым и начальником 9-й погранзаставы Андреем Кижеватовым.

Режиссер: Александр Котт
Продюсер: Игорь Угольников, Рубен Дишдишян, Владимир Заметалин
Актеры: Павел Деревянко, Андрей Мерзликин, Александр Коршунов, Александр Копашов, Евгений Цыганов, Яна Есипович

Продолжительность: 02:18:15
Перевод: Оригинал [Лицензия]
Субтитры: Отсутствуют



Дата мировой премьеры: 22 июня 2010, ...
Дата российской премьеры: 4 ноября 2010, «Централ Партнершип»
Дата выхода DVD релиза: 7 декабря 2010, «Флагман-Трейд», ...
Дата выхода Blu-Ray релиза: 8 февраля 2011, «Флагман-Трейд», ...

Видеокодек: MPEG-4 AVC/H.264
Битрейт видео: ~1808 Кбит/сек
Размер кадра: 864 x 368
Качество видео: BDRip
Аудио: AC3 5.1, 48,0 КГц, ~448 Кбит/сек
Общее
Уникальный идентификатор : 191919271513284565013317876871379772538 (0x90624EA415D18FA4A27CCAA3AC1B647A)
Полное имя : H:\Brestskaya.krepost.2010.x264.BDRip.mkv
Формат : Matroska
Версия формата : Version 2
Размер файла : 2,18 Гбайт
Продолжительность : 2 ч. 18 м.
Общий поток : 2258 Кбит/сек
Дата кодирования : UTC 2011-01-02 11:18:53
Программа кодирования : mkvmerge v4.4.0 ('Die Wiederkehr') сборка от Oct 31 2010 21:52:48
Библиотека кодирования : libebml v1.0.0 + libmatroska v1.0.0

Видео
Идентификатор : 1
Формат : AVC
Формат/Информация : Advanced Video Codec
Профиль формата : High@L4.1
Параметр CABAC формата : Да
Параметр ReFrames формата : 10 кадров
Идентификатор кодека : V_MPEG4/ISO/AVC
Продолжительность : 2 ч. 18 м.
Битрейт : 1808 Кбит/сек
Ширина : 864 пикселя
Высота : 368 пикселей
Соотношение сторон : 2,35:1
Частота кадров : 24,000 кадра/сек
Цветовое пространство : YUV
Субдискретизация насыщенности : 4:2:0
Битовая глубина : 8 бит
Тип развёртки : Прогрессивная
Бит/(Пиксели*Кадры) : 0.237
Размер потока : 1,70 Гбайт (78%)
Библиотека кодирования : x264 core 112 r1834kMod a51816a
Настройки программы : cabac=1 / ref=10 / deblock=1:-2:-1 / analyse=0x3:0x113 / me=umh / subme=10 / psy=1 / psy_rd=1.00:0.05 / mixed_ref=1 / me_range=32 / chroma_me=1 / trellis=2 / 8x8dct=1 / cqm=0 / deadzone=21,11 / fast_pskip=0 / chroma_qp_offset=-3 / threads=6 / sliced_threads=0 / nr=0 / decimate=0 / interlaced=0 / constrained_intra=0 / bframes=13 / b_pyramid=2 / b_adapt=2 / b_bias=0 / direct=3 / weightb=1 / open_gop=0 / weightp=2 / keyint=250 / keyint_min=24 / scenecut=40 / intra_refresh=0 / rc_lookahead=120 / rc=2pass / mbtree=1 / bitrate=1808 / ratetol=1.0 / qcomp=0.65 / qpmin=0 / qpmax=51 / qpstep=4 / cplxblur=20.0 / qblur=0.5 / vbv_maxrate=50000 / vbv_bufsize=50000 / ip_ratio=1.40 / aq=1:0.90 / nal_hrd=none
Язык : Russian
Default : Да
Forced : Нет
Коэффициенты матрицы : BT.709-5, BT.1361, IEC 61966-2-4 709, SMPTE RP177

Аудио
Идентификатор : 2
Формат : AC-3
Формат/Информация : Audio Coding 3
Расширение режима : CM (complete main)
Параметр Endianness формата : Big
Идентификатор кодека : A_AC3
Продолжительность : 2 ч. 18 м.
Вид битрейта : Постоянный
Битрейт : 448 Кбит/сек
Каналы : 6 каналов
Расположение каналов : Front: L C R, Side: L R, LFE
Частота : 48,0 КГц
Битовая глубина : 16 бит
Метод сжатия : С потерями
Размер потока : 443 Мбайт (20%)
Заголовок : AC3 5.1, 448 kbps
Язык : Russian
Default : Да
Forced : Нет
Длительность телевизионной версии - 178 минут.
В фильме показана бомбардировка крепости в первый же день войны. На самом деле, первая бомбардировка крепости была произведена 29 июня 1941 года, до этого бомбардировщики лишь пролетали над ней, следуя на другие объекты.
Скриншоты:



Брестская крепость на NNM-club

Время раздачи: С 10.00 до 23.00
[NNM-Club.ru]_Brestskaya.krepost.2010.x264.BDRip.mkv.torrent
 Торрент: Платиновая раздача  Зарегистрирован
 
Скачать


Примагнититься
 Зарегистрирован:   29 Июн 2012 21:38:58
 Размер:   2.18 GB  (
 Рейтинг:   4.9 (Голосов: 131)
 Поблагодарили:   504
 Проверка:   Оформление проверено модератором 03 Июл 2012 21:12:47
Как cкачать  ·  Как раздать  ·  Правильно оформить  ·  Поднять ратио!  
Гошка_Я
Стаж: 12 лет 9 мес.
Сообщений: 204
Ratio: 83.218
Поблагодарили: 30834
100%
russia.gif
andr1525 :респект: качество отличное!
Фильм прекрасный, замечательный! Как говориться "взял за живое"!!! Голливуд нервно курит в сторонке.
Эх-х, побольше бы таких фильмов!
Показать сообщения:   
Начать новую тему   Ответить на тему    Торрент-трекер NNM-Club -> Отечественное кино -> Отечественные Фильмы (SD) Часовой пояс: GMT + 3
Страница 1 из 1