Классический форум-трекер
canvas not supported
Нас вместе: 4 235 068

Напролом / Lockout (2012) [720p] BDRip [Unrated]


 
 
RSS
Начать новую тему   Ответить на тему    Торрент-трекер NNM-Club -> Зарубежное кино -> Зарубежные Фильмы (HD, FHD)
Автор Сообщение
andr1525 ®
Покровитель талантов
Стаж: 13 лет 8 мес.
Сообщений: 2126
Ratio: 5.476
Поблагодарили: 171949
100%
russia.gif
Напролом / Lockout (2012) BDRip
«В одиночку против 500. В чем проблема?»

Русское название: Напролом
Оригинальное название: Lockout
Год выпуска: 2012
Производство: Europa Corp. / EuropaCorp, США — Франция
Жанр: Фантастика, Боевик, Триллер
Перевод: Одноголосый закадровый, любительский
Озвучка / Автор перевода: Вячеслав Замез [Zamez]
Субтитры: Вшитые отключаемые
Язык субтитров: Английский

Дата мировой премьеры: 7 апреля 2012, ...
Дата российской премьеры: 17 мая 2012, «Вольга»
Дата выхода DVD релиза: 17 июля 2012, «Вольга», ...
Дата выхода Blu-Ray релиза: 17 июля 2012, «Вольга», ...

Режиссер: Джеймс Мэтер, Стивен Ст. Леджер
Продюсер: Марк Либерт, Лейла Смит, Люк Бессон
Актеры: Гай Пирс, Мэгги Грэйс, Винсент Риган, Джозеф Гилган, Ленни Джеймс, Петер Стормаре, Джеки Идо, Тим Плестер, Энн-Соленн Хатте

Описание фильма:
Орбитальная станция MS1 — крупнейшая космическая тюрьма, где в анабиозе содержатся тысячи опасных преступников. Ходят слухи, что над погруженными в искусственный сон узниками проводятся противозаконные эксперименты. С расследованием на станцию отправлена комиссия во главе с Эмили Уорнок, дочерью президента США.
Неожиданно ситуация выходит из-под контроля, и вся станция оказывается захвачена уголовниками. Спецагент Сноу, несправедливо обвиненный в государственной измене, получает задание проникнуть в самую неприступную тюрьму во Вселенной и спасти Эмили. Это его единственный шанс вернуть себе доброе имя и получить свободу.



Продолжительность: 01:35:19
Качество видео: BDRip

Видеокодек: MPEG-4 AVC/H.264
Битрейт видео: ~5060 Кбит/сек
Размер кадра: 1280 x 528
Аудио 1: AC3 5.1, 48,0 КГц, ~448 Кбит/сек - Русский |Одноголосый, В. Замез|
Аудио 2: DTS 5.1, 48,0 КГц, ~1510 Кбит/сек - Английский |Оригинал|
Общее
Уникальный идентификатор : 176450777381570678469322582357907799662 (0x84BF2EFF8E098DF289D39E6D4DDAFE6E)
Полное имя : H:\Naprolom.2012.Unrated.720р.BDRip.mkv
Формат : Matroska
Версия формата : Version 2
Размер файла : 4,67 Гбайт
Продолжительность : 1 ч. 35 м.
Общий поток : 7019 Кбит/сек
Дата кодирования : UTC 2012-06-29 20:02:22
Программа кодирования : mkvmerge v5.6.0 ('Kenya Kane') built on May 27 2012 16:44:04
Библиотека кодирования : libebml v1.2.3 + libmatroska v1.3.0

Видео
Идентификатор : 1
Формат : AVC
Формат/Информация : Advanced Video Codec
Профиль формата : High@L4.1
Параметр CABAC формата : Да
Параметр ReFrames формата : 5 кадров
Идентификатор кодека : V_MPEG4/ISO/AVC
Продолжительность : 1 ч. 35 м.
Битрейт : 5060 Кбит/сек
Ширина : 1280 пикселей
Высота : 528 пикселей
Соотношение сторон : 2,40:1
Частота кадров : 23,976 кадра/сек
Цветовое пространство : YUV
Субдискретизация насыщенности : 4:2:0
Битовая глубина : 8 бит
Тип развёртки : Прогрессивная
Бит/(Пиксели*Кадры) : 0.312
Размер потока : 3,28 Гбайт (70%)
Библиотека кодирования : x264 core 125 r2200 999b753
Настройки программы : cabac=1 / ref=5 / deblock=1:0:0 / analyse=0x3:0x133 / me=umh / subme=7 / psy=1 / psy_rd=1.00:0.00 / mixed_ref=1 / me_range=16 / chroma_me=1 / trellis=1 / 8x8dct=1 / cqm=0 / deadzone=21,11 / fast_pskip=0 / chroma_qp_offset=-2 / threads=12 / lookahead_threads=2 / sliced_threads=0 / nr=0 / decimate=1 / interlaced=0 / bluray_compat=0 / constrained_intra=0 / bframes=3 / b_pyramid=2 / b_adapt=1 / b_bias=0 / direct=1 / weightb=1 / open_gop=0 / weightp=2 / keyint=250 / keyint_min=23 / scenecut=40 / intra_refresh=0 / rc_lookahead=40 / rc=2pass / mbtree=1 / bitrate=5060 / ratetol=1.0 / qcomp=0.60 / qpmin=0 / qpmax=69 / qpstep=4 / cplxblur=20.0 / qblur=0.5 / ip_ratio=1.40 / aq=1:1.00
Язык : English
Default : Да
Forced : Нет

Аудио #1
Идентификатор : 2
Формат : AC-3
Формат/Информация : Audio Coding 3
Расширение режима : CM (complete main)
Параметр Endianness формата : Big
Идентификатор кодека : A_AC3
Продолжительность : 1 ч. 35 м.
Вид битрейта : Постоянный
Битрейт : 448 Кбит/сек
Каналы : 6 каналов
Расположение каналов : Front: L C R, Side: L R, LFE
Частота : 48,0 КГц
Битовая глубина : 16 бит
Метод сжатия : С потерями
Размер потока : 305 Мбайт (6%)
Заголовок : Zamez
Язык : Russian
Default : Да
Forced : Нет

Аудио #2
Идентификатор : 3
Формат : DTS
Формат/Информация : Digital Theater Systems
Идентификатор кодека : A_DTS
Продолжительность : 1 ч. 35 м.
Вид битрейта : Постоянный
Битрейт : 1510 Кбит/сек
Каналы : 6 каналов
Расположение каналов : Front: L C R, Side: L R, LFE
Частота : 48,0 КГц
Битовая глубина : 24 бит
Метод сжатия : С потерями
Размер потока : 1,01 Гбайт (22%)
Язык : English
Default : Нет
Forced : Нет

Текст
Идентификатор : 4
Формат : UTF-8
Идентификатор кодека : S_TEXT/UTF8
Идентификатор кодека/Информация : UTF-8 Plain Text
Язык : English
Default : Нет
Forced : Нет
Главные отрицательные герои – братья Алекс и Хайделл. Алек Хиделл – псевдоним, который использовал Ли Харви Освальд.
В одной из сцен Сноу отмечает: «Вопреки распространённому мнению, на самом деле я не Гудини». Гай Пирс играл Гарри Гудини в фильме «Смертельный номер» (2007).
«Крик Вильгельма» звучит в фильме в сцене, где заключенный спотыкается и падает сразу после выхода из стазиса.
Когда стазисные камеры первый раз открываются, можно видеть как одна из них открывается дважды.
Когда сценарий был завершен, режиссеры убедили Бессона, что им необходимо полностью «пре-визуализировать» будущий фильм с помощью раскадровки и анимированных моделей героев и декораций.
Пре-визуализация оказалась чрезвычайно полезна для глав технических департаментов, сумевших благодаря ей получить более четкое представление об особенностях экшн-сцен, а также каскадеров, которые уяснили себе, чего хотят добиться постановщики. А учитывая, что все технические специалисты были разного происхождения – из Бразилии, Ирландии, Франции, Сербии, - пре-визуализация успешно помогла им преодолеть языковой барьер.
Главным инициатором создания картины выступила французская компания (она же продюсировала ленту), съемки фильма проходили в Сербии, основные роли исполнили англоговорящие актеры, и при этом на проект распространялись ирландские налоговые льготы.
Часть объектов и декораций сочетала элементы технических конструкций и зеленого экрана – таковы, например, космический полицейский департамент в форме листка клевера, фоном которому служили Земля и космические глубины, или шоссе, где разворачивается погоня на мотоциклах.
Эпизод в Овальном кабинете был снят на пивоваренном заводе Amstel, расположенном в пригороде сербской столицы.
В то время как монтаж и цветокоррекция картины проходили во Франции, визуальными эффектами занималась ирландская студия Windmillane.
Скриншоты:


Время раздачи: С 10.00 до 23.00

[NNM-Club.ru]_Naprolom.2012.Unrated.720r.BDRip.mkv.torrent
 Торрент: Платиновая раздача  Зарегистрирован
 
Скачать


 Зарегистрирован:   29 Июн 2012 23:25:41
 Размер:   4.67 GB  (
 Рейтинг:   4.4 (Голосов: 32)
 Поблагодарили:   112
 Проверка:   Оформление проверено модератором 30 Июн 2012 16:55:15
Как cкачать  ·  Как раздать  ·  Правильно оформить  ·  Поднять ратио!  
Zov72
Стаж: 14 лет 5 мес.
Сообщений: 4743
Ratio: 110.504
Поблагодарили: 611432
100%
Откуда: Вольный кабан
wild_hogs.gif
andr1525
Качество..ммм..Спасибо, но все таки наверное буду до лиценза терпеть..

_________________
Мне чужого не надо….Но свое я заберу, чье бы оно ни было!!!
andr1525 ®
Покровитель талантов
Стаж: 13 лет 8 мес.
Сообщений: 2126
Ratio: 5.476
Поблагодарили: 171949
100%
russia.gif
Zov72
Хотя бы "Чистого звука", уже было бы хорошо. =)
m()narch
 
Стаж: 14 лет 2 мес.
Сообщений: 95
Ratio: 9.67
100%
russia.gif
Отдельное спасибо за оригинальную дорожку. :респект:
Mousesports
Стаж: 13 лет
Сообщений: 1787
Ratio: 593.59
Поблагодарили: 34648
100%
Откуда: С берегов невы
russia.gif
Автору :респект:
Качество супер, перевод хороший, хоть и одноголоска, но замез переводит хорошо

_________________
....
fgfds
Стаж: 12 лет 7 мес.
Сообщений: 1013
Ratio: 20.312
Раздал: 29.55 TB
11.06%
Озвучка неплохая, но полно ошибок перевода.
Показать сообщения:   
Начать новую тему   Ответить на тему    Торрент-трекер NNM-Club -> Зарубежное кино -> Зарубежные Фильмы (HD, FHD) Часовой пояс: GMT + 3
Страница 1 из 1