Классический форум-трекер
canvas not supported
Нас вместе: 4 235 058

Пленницы / Prisoners (2013) BDRip [720p]


 
 
RSS
Начать новую тему   Ответить на тему    Торрент-трекер NNM-Club -> Архив торрентов -> Архив Видео. Кино, Театра
Автор Сообщение
andr1525 ®
Покровитель талантов
Стаж: 13 лет 8 мес.
Сообщений: 2126
Ratio: 5.476
Поблагодарили: 171949
100%
russia.gif
Пленницы / Prisoners (2013) BDRip
«Нельзя терять ни минуты»

Русское название: Пленницы
Оригинальное название: Prisoners
Год выпуска: 2013
Производство: США | Alcon Entertainment, 8:38 Productions, Madhouse Entertainment
Жанр: Триллер, Драма, Криминал, ...

Описание фильма:
Келлер Довер сталкивается с самым большим кошмаром каждого родителя: его шестилетняя дочь пропала вместе с подругой. Время бежит, девочки не возвращаются, и паника достигает своего предела. Единственная зацепка — обветшалый фургончик, который был припаркован на их улице, когда девочки играли во дворе. Детектив Локки, возглавляющий расследование, арестовывает его водителя, Алекса Джонса, но вскоре полиция вынуждена его отпустить из-за нехватки улик. Полиция медлит, а обезумевший от горя отец берет дело в свои руки. Но как далеко готов зайти Келлер в поисках девочек?

Режиссер: Дени Вильнёв
Продюсер: Кира Дэвис, Бродерик Джонсон, Адам Колбеннер
Актеры: Хью Джекман, Джейк Джилленхол, Виола Дэвис, Мария Белло, Терренс Ховард, Мелисса Лео, Пол Дано, Дилан Миннетт, Зои Борд, Эрин Герасимович, Кайла Дрю Симмонс, Уэйн Дювалл, Лен Кариу, Давид Дастмалчян, Брэд Джеймс, Энтони Рейнольдс

Продолжительность: 02:33:11
Перевод: Многоголосый закадровый, профессиональный [Baibako]; Авторский, одноголосый закадровый [Ю.Сербин]
Язык субтитров: Русский, Английский
Вид субтитров: Вшитые отключаемые
Навигация по главам: Есть (16)



Рейтинг R - Детям до 17 лет обязательно присутствие родителей

Дата мировой премьеры: 30 августа 2013, ...
Дата российской премьеры: 26 сентября 2013, «West»

Видеокодек: MPEG-4 AVC/H.264
Битрейт видео: ~ 4594 Кбит/сек
Размер кадра: 1280 x 720
Качество видео: BDRip
Аудиокодек: AC3, DTS
Аудио 1: AC3 5.1, 48,0 КГц, ~384 Кбит/сек - Русский |Одноголосый, Ю.Сербин|
Аудио 2: AC3 5.1, 48,0 КГц, ~384 Кбит/сек - Русский |Многоголосый, Baibako|
Аудио 3: DTS 5.1, 48,0 КГц, ~1509 Кбит/сек - Английский |Оригинал|
Общее
Уникальный идентификатор : 233159611624920638008674762183950555371 (0xAF68E864993FE2BC996A36AC801D58EB)
Полное имя : E:\Prisoners.2013.720p.mkv
Формат : Matroska
Версия формата : Version 4 / Version 2
Размер файла : 7,35 Гбайт
Продолжительность : 2 ч. 33 м.
Общий поток : 6872 Кбит/сек
Дата кодирования : UTC 2013-12-29 10:48:29
Программа кодирования : mkvmerge v6.6.0 ('The Edge Of The In Between') built on Dec 1 2013 17:55:00
Библиотека кодирования : libebml v1.3.0 + libmatroska v1.4.1

Видео
Идентификатор : 1
Формат : AVC
Формат/Информация : Advanced Video Codec
Профиль формата : High@L4.1
Параметр CABAC формата : Да
Параметр ReFrames формата : 9 кадров
Идентификатор кодека : V_MPEG4/ISO/AVC
Продолжительность : 2 ч. 33 м.
Битрейт : 4594 Кбит/сек
Ширина : 1280 пикселей
Высота : 720 пикселей
Соотношение сторон : 16:9
Режим частоты кадров : Постоянный
Частота кадров : 23,976 кадра/сек
Цветовое пространство : YUV
Субдискретизация насыщенности : 4:2:0
Битовая глубина : 8 бит
Тип развёртки : Прогрессивная
Бит/(Пиксели*Кадры) : 0.208
Размер потока : 4,77 Гбайт (65%)
Библиотека кодирования : x264 core 138 r2356 a1d3d17
Настройки программы : cabac=1 / ref=9 / deblock=1:-3:-3 / analyse=0x3:0x113 / me=umh / subme=10 / psy=1 / psy_rd=1.00:0.05 / mixed_ref=1 / me_range=32 / chroma_me=1 / trellis=2 / 8x8dct=1 / cqm=0 / deadzone=21,11 / fast_pskip=0 / chroma_qp_offset=-2 / threads=18 / lookahead_threads=1 / sliced_threads=0 / nr=0 / decimate=1 / interlaced=0 / bluray_compat=0 / constrained_intra=0 / bframes=4 / b_pyramid=2 / b_adapt=2 / b_bias=0 / direct=3 / weightb=1 / open_gop=0 / weightp=2 / keyint=250 / keyint_min=23 / scenecut=40 / intra_refresh=0 / rc=2pass / mbtree=0 / bitrate=4594 / ratetol=1.0 / qcomp=0.70 / qpmin=0 / qpmax=69 / qpstep=4 / cplxblur=20.0 / qblur=0.5 / ip_ratio=1.40 / pb_ratio=1.30 / aq=2:1.00
Язык : English
Default : Да
Forced : Нет

Аудио #1
Идентификатор : 2
Формат : AC-3
Формат/Информация : Audio Coding 3
Расширение режима : CM (complete main)
Параметр Endianness формата : Big
Идентификатор кодека : A_AC3
Продолжительность : 2 ч. 33 м.
Вид битрейта : Постоянный
Битрейт : 384 Кбит/сек
Каналы : 6 каналов
Расположение каналов : Front: L C R, Side: L R, LFE
Частота : 48,0 КГц
Битовая глубина : 16 бит
Метод сжатия : С потерями
Размер потока : 421 Мбайт (6%)
Заголовок : Ю.Сербин
Язык : Russian
Default : Нет
Forced : Да

Аудио #2
Идентификатор : 3
Формат : AC-3
Формат/Информация : Audio Coding 3
Расширение режима : CM (complete main)
Параметр Endianness формата : Big
Идентификатор кодека : A_AC3
Продолжительность : 2 ч. 33 м.
Вид битрейта : Постоянный
Битрейт : 384 Кбит/сек
Каналы : 6 каналов
Расположение каналов : Front: L C R, Side: L R, LFE
Частота : 48,0 КГц
Битовая глубина : 16 бит
Метод сжатия : С потерями
Размер потока : 421 Мбайт (6%)
Заголовок : BaiBako
Язык : Russian
Default : Да
Forced : Да

Аудио #3
Идентификатор : 4
Формат : DTS
Формат/Информация : Digital Theater Systems
Режим : 16
Параметр Endianness формата : Big
Идентификатор кодека : A_DTS
Продолжительность : 2 ч. 33 м.
Вид битрейта : Постоянный
Битрейт : 1509 Кбит/сек
Каналы : 6 каналов
Расположение каналов : Front: L C R, Side: L R, LFE
Частота : 48,0 КГц
Битовая глубина : 24 бит
Метод сжатия : С потерями
Размер потока : 1,61 Гбайт (22%)
Язык : English
Default : Нет
Forced : Нет

Текст #1
Идентификатор : 5
Формат : UTF-8
Идентификатор кодека : S_TEXT/UTF8
Идентификатор кодека/Информация : UTF-8 Plain Text
Язык : Russian
Default : Нет
Forced : Нет

Текст #2
Идентификатор : 6
Формат : UTF-8
Идентификатор кодека : S_TEXT/UTF8
Идентификатор кодека/Информация : UTF-8 Plain Text
Язык : English
Default : Нет
Forced : Нет

Меню
00:00:00.000 : en:00:00:00.000
00:08:50.780 : en:00:08:50.780
00:19:52.149 : en:00:19:52.149
00:30:18.942 : en:00:30:18.942
00:40:23.838 : en:00:40:23.838
00:49:36.974 : en:00:49:36.974
00:59:27.898 : en:00:59:27.898
01:08:24.726 : en:01:08:24.726
01:17:29.103 : en:01:17:29.103
01:29:17.394 : en:01:29:17.394
01:41:34.797 : en:01:41:34.797
01:51:36.815 : en:01:51:36.815
01:59:39.255 : en:01:59:39.255
02:11:46.690 : en:02:11:46.690
02:19:50.841 : en:02:19:50.841
02:25:54.287 : en:02:25:54.287
По карточкам детектива Локи можно узнать его полное имя — Дэвид Уэйн Локи.
Леонардо ДиКаприо долгое время значился исполнителем главной роли, однако в конце концов выбыл из проекта.
Изначально планировалось, что главные роли исполнят Марк Уолберг и Кристиан Бэйл, а режиссерское кресло займет Брайан Сингер.
Хью Джекман был приписан к проекту еще когда режиссером картины значился Антуан Фукуа. Впоследствии оба выбыли из проекта. После нескольких лет разработок Хью Джекман снова подписался на главную роль.
В этом фильме Хью Джекман играет роль отца, чью дочь похищают. Его кандидатура рассматривалась на аналогичную роль в фильме «Милые кости» (2009), но там вместо него взяли Марка Уолберга, который мог сыграть главную роль в этом фильме.
Съёмки проходили в Атланте, Конайерс (Джорджия) и Дерби (Коннектикут).
Когда Холли направляет пистолет на Келлера на кухне, она эффектно взводит курок. Однако в следующем кадре, когда показывают пистолет крупным планом, видно, что курок не взведен.
Действие фильма разворачивается в Пенсильвании, но при этом есть рекламные щиты юридической фирмы из Атланты — «Morgan and Morgan» — расположенные над винным магазином.
Ближе к концу фильма, когда папа идет в дом миссис Джонс, на улице день. После того как они через короткий промежуток времени выходят на улицу, там уже ночь.
Когда Келлер находится в винном магазине, на улице идет дождь. Когда он идет домой из магазина, все вокруг покрыто снегом. Когда он входит в свой дом и ложится в кровать, на улице снова идет дождь, а на следующее утро все снова покрыто снегом.
В первый раз, когда детектив Локи должен отъехать от дома семьи Доверов, он сидит в машине и говорит с Келлером Довером через окно — в этот момент у него во рту спичка, при смене кадра спичка резко исчезает.
Скриншоты:


Время раздачи: С 10.00 до 23.00

[NNM-Club.me]_Prisoners.2013.720p.mkv.torrent
 Торрент:   Зарегистрирован
 
Зарегистрируйтесь и скачайте торрент!
18.9 KB

Примагнититься
 Зарегистрирован:   29 Дек 2013 14:25:54
 Размер:   7.35 GB  (
 Рейтинг:   5 (Голосов: 39)
 Поблагодарили:   169
 Проверка:   Внимание! Оформление не проверено модератором!
Как cкачать  ·  Как раздать  ·  Правильно оформить  ·  Поднять ратио!  
ElektrAа
Uploader 500+
Стаж: 13 лет 5 мес.
Сообщений: 2788
Ratio: 3824.67
Раздал: 508.6 TB
Поблагодарили: 395012
100%
Откуда: Южная столица
ukraine.gif
andr1525

radikal.ru запрещён для загрузки обложек, загрузите постер на рекомендуемый хостинг
andr1525 ®
Покровитель талантов
Стаж: 13 лет 8 мес.
Сообщений: 2126
Ratio: 5.476
Поблагодарили: 171949
100%
russia.gif
ElektrAа
Поправил.
ElektrAа
Uploader 500+
Стаж: 13 лет 5 мес.
Сообщений: 2788
Ratio: 3824.67
Раздал: 508.6 TB
Поблагодарили: 395012
100%
Откуда: Южная столица
ukraine.gif
andr1525 писал(а): Перейти к сообщению
ElektrAа
Поправил.


Обложку в jpg :win
Топик был перенесен из форума Новинки (HD) в форум Архив Видео

Причина переноса: Исправление http://nnmclub.to/forum/viewtopic.php?t=739448
ElektrAа
ImpFalcon
Стаж: 13 лет 6 мес.
Сообщений: 12
Ratio: 15.084
100%
ссылка ведет на фильм андроид
supch1k
Стаж: 12 лет
Сообщений: 12
Ratio: 1.159
1.85%
отличный фильм
Показать сообщения:   
Начать новую тему   Ответить на тему    Торрент-трекер NNM-Club -> Архив торрентов -> Архив Видео. Кино, Театра Часовой пояс: GMT + 3
Страница 1 из 1