Классический форум-трекер
canvas not supported
Нас вместе: 4 235 067

Капитан Филлипс / Captain Phillips (2013) HDRip


 
 
RSS
Начать новую тему   Ответить на тему    Торрент-трекер NNM-Club -> Зарубежное кино -> Зарубежные Фильмы (SD)
Автор Сообщение
andr1525 ®
Покровитель талантов
Стаж: 13 лет 8 мес.
Сообщений: 2126
Ratio: 5.476
Поблагодарили: 171949
100%
russia.gif
Капитан Филлипс / Captain Phillips (2013) HDRip
«Выжить любой ценой»

Год выпуска: 2013
Производство: Michael De Luca Productions, Scott Rudin Productions, Translux, Trigger Street Productions, США
Жанр: Триллер, Драма, Криминал, Боевик, ...
Перевод: Профессиональный (полное дублирование) [Лицензия]
Субтитры: Вшитые неотключаемые (на сомалийскую речь)
Язык субтитров: Русский

Дата мировой премьеры: 27 сентября 2013, ...
Дата российской премьеры: 5 декабря 2013, «WDSSPR»
Дата выхода DVD релиза: 11 марта 2014, «Columbia/Sony», ...
Дата выхода Blu-Ray релиза: 11 марта 2014, «Columbia/Sony», ...

Режиссер: Пол Гринграсс
Продюсер: Дэйна Брунетти, Майкл Де Лука, Скотт Рудин
Актеры: Том Хэнкс, Баркхад Абди, Баркхад Абдирахман, Файсал Ахмед, Махат М. Али, Майкл Чернус, Кэтрин Кинер, Дэвид Уоршофски, Кори Джонсон, Крис Малки

Описание фильма:
В начале апреля 2009 года, близ берегов Африки, несколько сомалийских пиратов атакуют и пытаются захватить массивный контейнеровоз MV Maersk Alabama. Команда корабля активно сопротивляется и в конце концов не даёт взять себя в плен. Захватчики вынуждены ретироваться и покинуть судно на небольшом катере, прихватив с собой немолодого капитана Ричарда Филлипса…



Продолжительность: 02:14:04
Качество видео: HDRip

Видеокодек: Xvid
Битрейт видео: ~ 1002 Кбит/сек
Размер кадра: 720 x 304
Аудио: AC3 5.1, 48,0 КГц, 448 Кбит/сек - Русский |Дубляж|
Общее
Полное имя : E:\Kap1tan.F1lips.2013.D.HDRip.avi
Формат : AVI
Формат/Информация : Audio Video Interleave
Размер файла : 1,37 Гбайт
Продолжительность : 2 ч. 14 м.
Общий поток : 1459 Кбит/сек
Программа кодирования : VirtualDubMod 1.5.10.2 (build 2540/release)
Библиотека кодирования : VirtualDubMod build 2540/release

Видео
Идентификатор : 0
Формат : MPEG-4 Visual
Профиль формата : Advanced Simple@L5
Параметр BVOP формата : 2
Параметр QPel формата : Нет
Параметр GMC формата : Без точки перехода
Параметр матрицы формата : Выборочная
Идентификатор кодека : XVID
Идентификатор кодека/Подсказка : XviD
Продолжительность : 2 ч. 14 м.
Битрейт : 1002 Кбит/сек
Ширина : 720 пикселей
Высота : 304 пикселя
Соотношение сторон : 2,35:1
Частота кадров : 23,976 кадра/сек
Цветовое пространство : YUV
Субдискретизация насыщенности : 4:2:0
Битовая глубина : 8 бит
Тип развёртки : Прогрессивная
Метод сжатия : С потерями
Бит/(Пиксели*Кадры) : 0.191
Размер потока : 961 Мбайт (69%)
Библиотека кодирования : XviD 1.2.1 (UTC 2008-12-04)

Аудио
Идентификатор : 1
Формат : AC-3
Формат/Информация : Audio Coding 3
Расширение режима : CM (complete main)
Параметр Endianness формата : Big
Идентификатор кодека : 2000
Продолжительность : 2 ч. 14 м.
Вид битрейта : Постоянный
Битрейт : 448 Кбит/сек
Каналы : 6 каналов
Расположение каналов : Front: L C R, Side: L R, LFE
Частота : 48,0 КГц
Битовая глубина : 16 бит
Метод сжатия : С потерями
Размер потока : 430 Мбайт (31%)
Выравнивание : Разделение по промежуткам
Продолжительность промежутка : 42 мс. (1,00 видеокадр)
Время предзагрузки промежутка : 500 мс.
Угон судна «Маерск Алабама» и захват в заложники капитана Филлипса является также главной темой романа Элмора Леонарда — «Джибути» (2010).
Военный корабль во время съемки сцены на мостике на самом деле находился в открытом море. И из-за того, что съемочная группа затемнила окна, чтобы уменьшить количество света с улицы, наблюдателям, следящим за направлением движения корабля, пришлось делать это не с мостика, а с его крыльев.
Том Хэнкс исполнил роль Ричарда Филлипса — капитана корабля «Маерск Алабама». Персонаж Хэнкса из фильма «Форрест Гамп» (1994) родился и вырос в штате Алабама, а также некоторое время был капитаном рыболовного судна.
Том Хэнкс рассказал, что впервые встретился с актерами, играющими сомалийских пиратов, когда начали снимать сцену захвата судна. Пол Гринграсс отметил, что сделал это намеренно, чтобы создать напряженность в отношениях между актерами на борту судна и актерами, исполняющими роль пиратов.
Внимание! Дальнейший список фактов о фильме содержит спойлеры. Будьте осторожны.
Сцена в боевом информационном центре, где матрос пишет на доске «Seat 15» задом наперед, была импровизацией. Оператор Бэрри Экройд заметил старшину первой статьи, который практиковал написание слов задом наперед в перерывах между съемками, и попросил его повторить это для фильма.
Том Хэнкс утверждал, что сцена медицинского осмотра капитана Филлипса была сымпровизирована. Реальному санитару флота, Даниэле Альберт (Danielle Albert), сказали просто следовать обычной процедуре. Однако она была настолько поражена тем, что видит перед собой самого Тома Хэнкса, что застыла во время первого дубля. Хэнкс пошутил, сказав ей, что в этой сцене только он один должен пребывать в шоке.
Компания Sony / Columbia заплатила по 5000 долларов каждому члену экипажа «MV Maersk Alabama» за то, чтобы они не озвучивали свою версию событий в фильме. Не все пошли на эту сделку, многие оспаривали героический образ капитана Филлипса в фильме, рассказывая, что тот вел себя самоуверенно до нападения пиратов и инертно во время захвата судна. В самом начале нападения пиратов попал в заложники и более никаких мер не предпринимал.
После того как на сомалийской лодке ломается двигатель, на фоне виден американский корабль. Это судно должно плыть, но не видно никакого волнового следа.
Когда капитан Филлипс выходит на палубу в начале путешествия, очевидно, что корабль в этот момент стоит, хотя должен плыть.
По дороге в аэропорт прическа миссис Филлипс меняется несколько раз. У нее то появляются, то исчезают завитые локоны у левого уха.
Действие фильма разворачивается в апреле 2009 года. Когда «Морские котики» прибывают на базу в черных внедорожниках, на наклейке техосмотра на лобовом стекле можно заметить дату — 5/13 (май 2013-го года).
Когда капитана Филлипса везут на автомобиле на корабль в порт Салала, Оман, руль автомобиля находится справа. В Омане леворульные машины. Эта ошибка возникла из-за того, что сцену снимали на Мальте, бывшей британской колонии.
Скриншоты:


Время раздачи: С 10.00 до 23.00

[NNM-Club.me]_Kap1tan.F1lips.2013.D.HDRip.avi.torrent
 Торрент: Платиновая раздача  Зарегистрирован
 
Скачать


Примагнититься
 Зарегистрирован:   04 Фев 2014 17:05:56
 Размер:   1.37 GB  (
 Рейтинг:   4.7 (Голосов: 117)
 Поблагодарили:   568
 Проверка:   Оформление проверено модератором 04 Фев 2014 18:06:16
Как cкачать  ·  Как раздать  ·  Правильно оформить  ·  Поднять ратио!  
Chipperyxa
Стаж: 12 лет 6 мес.
Сообщений: 414
Ratio: 21.721
100%
russia.gif
Вроде как ничего в фильме особенного, а смотрится на одном дыхании!
Ruszr
Стаж: 14 лет 8 мес.
Сообщений: 14
Ratio: 6.259
22.26%
russia.gif
Отличный фильм рекомендую к просмотру!
andreev_bk
Стаж: 12 лет
Сообщений: 46
Ratio: 3.52
100%
 ..............
Bori_Gleb
Стаж: 13 лет
Сообщений: 168
Ratio: 181.626
Раздал: 14.11 TB
Поблагодарили: 635
100%
ussr.gif
Отличное кино, хоть и длится дольше 2-ух часов и экшена особо нет, но в увлекательной слежке за происходящим время пролетает незаметно)) Классный драматический триллер, а Том Хэнкс ваще супер)))

_________________
Понимать то, о чём споришь, совсем необязательно. (с) Бомарше :D
De_Light
Стаж: 11 лет 4 мес.
Сообщений: 1
Ratio: 7.956
100%
хороший фильм. игра Хэнкса как всегда на высоте.
mr_noob
Стаж: 13 лет 3 мес.
Сообщений: 1322
Ratio: 51.058
100%
russia.gif
неинтересную историю экранизировали
скучно, но правдиво

_________________
Like no other...
Показать сообщения:   
Начать новую тему   Ответить на тему    Торрент-трекер NNM-Club -> Зарубежное кино -> Зарубежные Фильмы (SD) Часовой пояс: GMT + 3
Страница 1 из 1