Классический форум-трекер
canvas not supported
Нас вместе: 4 235 076

Hot Hits (Cover versions of chart songs from 1971) - Round 8 (1971) [FLAC 2.0|24/192|image+.cue|Vinyl Rip]<Pop, Sound-Alike>


 
 
RSS
Начать новую тему   Ответить на тему    Торрент-трекер NNM-Club -> HD Audio и Многоканальная Музыка -> Vinyl-Rip и Hand-Made
Автор Сообщение
samopal records ®
Стаж: 9 лет 8 мес.
Сообщений: 1573
Ratio: 1909.568
Поблагодарили: 87865
100%
ussr.gif
Hot Hits - Round 8 (1971)
(Cover versions of chart songs from 1971)

Автор оцифровки: samopal records
Год: 1971
Жанр: Pop (Sound-Alike)
Страна-производитель диска: UK
Издатель (лейбл): Music For Pleasure
Номер по каталогу: MFP 5243
Жанр: Pop/Pop-Rock
Продолжительность: 00:38:41
Кодек: FLAC
Формат записи: 24/192000
Формат раздачи: 24/192000
Тип рипа: image+.cue
Треклист:
A1 Surrender
A2 Johnny Reggae
A3 Look Around (And You'll Find Me There)
A4 Jeepster
A5 Banks Of The Ohio
A6 Tired Of Being Alone
B1 Till
B2 Gypsies, Tramps And Thieves
B3 Coz I Luv You
B4 I WIll Return
B5 Brandy
B6 Run Baby Run
Носитель: LP
Код класса состояния винила: VG(+)
Устройство воспроизведения: Электроника ЭП 017С
Головка звукоснимателя: ГЗМ-053
Фонокоректор: Onkyo A-8820
АЦП: ESI Juli@
Программа-оцифровщик: Adobe Audition
Обработка: без обработки

Код: выделить все

Общее
Полное имя                               : C:\01. Side 1.flac
Формат                                   : FLAC
Формат/Информация                        : Free Lossless Audio Codec
Размер файла                             : 774 Мбайт
Продолжительность                        : 20 м. 2 с.
Режим общего битрейта                    : Переменный
Общий поток                              : 5 401 Кбит/сек

Аудио
Формат                                   : FLAC
Формат/Информация                        : Free Lossless Audio Codec
Продолжительность                        : 20 м. 2 с.
Вид битрейта                             : Переменный
Битрейт                                  : 5 401 Кбит/сек
Каналы                                   : 2 канала
Channel layout                           : L R
Частота                                  : 192 КГц
Битовая глубина                          : 24 бит
Метод сжатия                             : Без потерь
Размер потока                            : 774 Мбайт (100%)
Библиотека кодирования                   : libFLAC 1.3.0 (UTC 2013-05-26)

Общее
Полное имя                               : C:\02. Side 2.flac
Формат                                   : FLAC
Формат/Информация                        : Free Lossless Audio Codec
Размер файла                             : 722 Мбайт
Продолжительность                        : 18 м. 37 с.
Режим общего битрейта                    : Переменный
Общий поток                              : 5 421 Кбит/сек

Аудио
Формат                                   : FLAC
Формат/Информация                        : Free Lossless Audio Codec
Продолжительность                        : 18 м. 37 с.
Вид битрейта                             : Переменный
Битрейт                                  : 5 421 Кбит/сек
Каналы                                   : 2 канала
Channel layout                           : L R
Частота                                  : 192 КГц
Битовая глубина                          : 24 бит
Метод сжатия                             : Без потерь
Размер потока                            : 722 Мбайт (100%)
Библиотека кодирования                   : libFLAC 1.3.0 (UTC 2013-05-26)
Код: выделить все

foobar2000 1.1.3 / Dynamic Range Meter 1.1.1
log date: 2024-06-20 10:11:11

--------------------------------------------------------------------------------
Analyzed: Unknown Artists / Hot Hits - Round 8
--------------------------------------------------------------------------------

DR         Peak         RMS     Duration Track
--------------------------------------------------------------------------------
DR10      -0.34 dB   -14.02 dB      3:10 ?-A1 Surrender
DR11      -1.52 dB   -15.34 dB      2:22 ?-A2 Johnny Reggae
DR9       -2.38 dB   -14.96 dB      3:40 ?-A3 Look Around (And You'll Find Me There)
DR10      -0.30 dB   -12.02 dB      4:09 ?-A4 Jeepster
DR10      -1.50 dB   -15.30 dB      3:33 ?-A5 Banks Of The Ohio
DR10      -0.30 dB   -12.93 dB      3:07 ?-A6 Tired Of Being Alone
DR11      -0.30 dB   -14.17 dB      2:30 ?-B1 Till
DR11      -0.91 dB   -13.70 dB      2:42 ?-B2 Gypsies, Tramps And Thieves
DR12      -0.30 dB   -14.19 dB      3:31 ?-B3 Coz I Luv You
DR11      -0.54 dB   -12.97 dB      3:22 ?-B4 I WIll Return
DR11      -1.09 dB   -14.61 dB      3:23 ?-B5 Brandy
DR11      -2.04 dB   -15.77 dB      3:11 ?-B6 Run Baby Run
--------------------------------------------------------------------------------

Number of tracks:  12
Official DR value: DR11

Samplerate:        192000 Hz
Channels:          2
Bits per sample:   24
Bitrate:           5421 kbps
Codec:             FLAC
================================================================================

Время раздачи: c 05:00 до 20:00 (время Московское)
[NNMClub.to]_Hot Hits - Round 8 [LP] - 1971 (lossless).torrent
 Торрент: Платиновая раздача  Зарегистрирован
 
Скачать


Примагнититься
 Зарегистрирован:   20 Июн 2024 08:02:37
 Размер:   1.48 GB  (
 Рейтинг:   4.5 (Голосов: 19)
 Поблагодарили:   95
 Проверка:   Оформление проверено модератором 20 Июн 2024 10:08:14
Как cкачать  ·  Как раздать  ·  Правильно оформить  ·  Поднять ратио!  
sukaopa
Стаж: 12 лет 5 мес.
Сообщений: 528
Ratio: 0.644
100%
Откуда: Солнечный город
"Оригинальное" исполнение
Surrender - Diana Ross
Johnny Reggae - The Piglets
Look Around (You'll Find Me There) - Al Martino
Jeepster - T. Rex
Banks Of The Ohio - Olivia Newton-John
Tired Of Being Alone - Al Green
Till - Tom Jones
Gypsies, Tramps And Thieves - Cher
Coz I Luv You - Slade
I WIll Return - Phil Cordell
Brandy - Scott English
Run Baby Run - Hotlegs

_________________
Ну во-первых, это красиво!
samopal records ®
Стаж: 9 лет 8 мес.
Сообщений: 1573
Ratio: 1909.568
Поблагодарили: 87865
100%
ussr.gif
Материал переоцифрован и представлен в лучшем качестве.
Торрент перезалит 20.06.2024.
Показать сообщения:   
Начать новую тему   Ответить на тему    Торрент-трекер NNM-Club -> HD Audio и Многоканальная Музыка -> Vinyl-Rip и Hand-Made Часовой пояс: GMT + 3
Страница 1 из 1