Классический форум-трекер
canvas not supported
Нас вместе: 4 235 319

Pickwick Top Of The Poppers - Discoteque Hits (1975) [FLAC 2.0|24/192 (Vinyl Rip)]<Pop (Sound-Alike)>


 
 
RSS
Начать новую тему   Ответить на тему    Торрент-трекер NNM-Club -> HD Audio и Многоканальная Музыка -> Vinyl-Rip и Hand-Made
Автор Сообщение
samopal records ®
Стаж: 9 лет 8 мес.
Сообщений: 1575
Ratio: 1915.839
Поблагодарили: 87968
100%
ussr.gif
Pickwick Top Of The Poppers - Discoteque Hits (1975)
Год: 1975
Жанр: Pop (Sound-Alike)
Страна-производитель диска: France
Издатель (лейбл): Mr. Pickwick
Номер по каталогу: MPD 018
Продолжительность: 00:47:48
Автор оцифровки: samopal records
Кодек: FLAC
Формат записи: 24/192000
Формат раздачи: 24/192000
Тип рипа: image+.cue

Треклист:
01. I'm Not In Love
Gouldman - Stewart
02. Sailing
Sutherland
03. Moon Lighting
Sayer - Farrell
04. It's Been So Long
Casey - Finch
05. Shame Shame Shame
Sylvia Robinson
06. Sister Jane
Jeff Barry - Nino Tempo
07. Each Love Will Keep Us Together
Neil Sedaka - Howard Greenfield
08. Someone Saved My Life Tonight
Elton John - Bernie Taupin
09. I Can't Give You Anything But My Love
Hugo - Luigi - Weisa
10. Best Thing That Ever Happened To Me
Weatherley
11. Love In The Sun
Shephard - Springate
12. Summer of 42
Michel Legrand
Носитель: LP
Код класса состояния винила: VG(+)
Устройство воспроизведения: Электроника ЭП 017С
Головка звукоснимателя: ГЗМ-053
Фонокоректор: Onkyo A-8820
АЦП: ESI Juli@
Программа-оцифровщик: Adobe Audition
Обработка: без обработки

Код: выделить все

REM GENRE "Pop Rock, Blues Rock, Sound-alike"
REM DATE "1975"
REM COMMENT "Vinyl, LP, Album, Stereo, Mr. Pickwick – MPD 018, France"
PERFORMER "Unknown Artists"
TITLE "Tops Of The Poppers – Discotheque Hits Vol.1"
FILE "01. Side A.flac" WAVE
  TRACK 01 AUDIO
    TITLE "A1 I'm Not In Love"
    INDEX 01 00:00:00
  TRACK 02 AUDIO
    TITLE "A2 Sailing)"
    INDEX 01 06:12:08
  TRACK 03 AUDIO
    TITLE "A3 Moon Lighting"
    INDEX 01 10:38:32
  TRACK 04 AUDIO
    TITLE "A4 It's Been So Long"
    INDEX 01 14:44:68
  TRACK 05 AUDIO
    TITLE "A5 Shame Shame Shame"
    INDEX 01 17:20:36
  TRACK 06 AUDIO
    TITLE "A6 Sister Jane"
    INDEX 01 21:17:05
FILE "02. Side B.flac" WAVE
  TRACK 07 AUDIO
    TITLE "B1 Each Love Will Keep Us Together"
    INDEX 01 00:00:00
  TRACK 08 AUDIO
    TITLE "B2 Someone Saved My Life Tonight"
    INDEX 01 03:32:34
  TRACK 09 AUDIO
    TITLE "B3 I Can't Give You Anything But My Love"
    INDEX 01 10:15:02
  TRACK 10 AUDIO
    TITLE "B4 Best Thing That Ever Happened To Me"
    INDEX 01 13:32:38
  TRACK 11 AUDIO
    TITLE "B5 Love In The Sun"
    INDEX 01 17:34:21
  TRACK 12 AUDIO
    TITLE "B6 Summer Of 42"
    INDEX 01 20:42:40
Код: выделить все

Общее
Полное имя                               : C:\01. Side A.flac
Формат                                   : FLAC
Формат/Информация                        : Free Lossless Audio Codec
Размер файла                             : 877 Мбайт
Продолжительность                        : 23 м. 55 с.
Режим общего битрейта                    : Переменный
Общий поток                              : 5 126 Кбит/сек

Аудио
Формат                                   : FLAC
Формат/Информация                        : Free Lossless Audio Codec
Продолжительность                        : 23 м. 55 с.
Вид битрейта                             : Переменный
Битрейт                                  : 5 126 Кбит/сек
Каналы                                   : 2 канала
Channel layout                           : L R
Частота                                  : 192 КГц
Битовая глубина                          : 24 бит
Метод сжатия                             : Без потерь
Размер потока                            : 877 Мбайт (100%)
Библиотека кодирования                   : libFLAC 1.3.0 (UTC 2013-05-26)

Общее
Полное имя                               : C:\02. Side B.flac
Формат                                   : FLAC
Формат/Информация                        : Free Lossless Audio Codec
Размер файла                             : 910 Мбайт
Продолжительность                        : 23 м. 52 с.
Режим общего битрейта                    : Переменный
Общий поток                              : 5 331 Кбит/сек

Аудио
Формат                                   : FLAC
Формат/Информация                        : Free Lossless Audio Codec
Продолжительность                        : 23 м. 52 с.
Вид битрейта                             : Переменный
Битрейт                                  : 5 331 Кбит/сек
Каналы                                   : 2 канала
Channel layout                           : L R
Частота                                  : 192 КГц
Битовая глубина                          : 24 бит
Метод сжатия                             : Без потерь
Размер потока                            : 910 Мбайт (100%)
Библиотека кодирования                   : libFLAC 1.3.0 (UTC 2013-05-26)
Код: выделить все

foobar2000 1.1.3 / Dynamic Range Meter 1.1.1
log date: 2024-06-09 08:10:54

--------------------------------------------------------------------------------
Analyzed: Unknown Artists / Tops Of The Poppers – Discotheque Hits Vol.1
--------------------------------------------------------------------------------

DR         Peak         RMS     Duration Track
--------------------------------------------------------------------------------
DR11      -1.95 dB   -17.30 dB      6:12 ?-A1 I'm Not In Love
DR14      -1.97 dB   -19.02 dB      4:26 ?-A2 Sailing)
DR15      -1.75 dB   -19.15 dB      4:06 ?-A3 Moon Lighting
DR12      -2.51 dB   -16.54 dB      2:36 ?-A4 It's Been So Long
DR12      -2.17 dB   -17.45 dB      3:57 ?-A5 Shame Shame Shame
DR12      -1.35 dB   -15.93 dB      2:38 ?-A6 Sister Jane
DR12      -0.64 dB   -17.77 dB      3:32 ?-B1 Each Love Will Keep Us Together
DR14      -0.90 dB   -18.46 dB      6:43 ?-B2 Someone Saved My Life Tonight
DR15      -0.84 dB   -18.13 dB      3:17 ?-B3 I Can't Give You Anything But My Love
DR13      -4.22 dB   -21.43 dB      4:02 ?-B4 Best Thing That Ever Happened To Me
DR15      -0.30 dB   -18.38 dB      3:08 ?-B5 Love In The Sun
DR14      -1.12 dB   -18.22 dB      3:10 ?-B6 Summer Of 42
--------------------------------------------------------------------------------

Number of tracks:  12
Official DR value: DR13

Samplerate:        192000 Hz
Channels:          2
Bits per sample:   24
Bitrate:           5331 kbps
Codec:             FLAC
================================================================================

Время раздачи: c 05:00 до 20:00 (время Московское)
[NNMClub.to]_Pickwick's Top of the Pops - Discotheque Hits Vol.1 [LP] - 1976 (flac).torrent
 Торрент: Платиновая раздача  Зарегистрирован
 
Скачать


Примагнититься
 Зарегистрирован:   09 Июн 2024 07:40:01
 Размер:   1.77 GB  (
 Рейтинг:   4.5 (Голосов: 29)
 Поблагодарили:   119
 Проверка:   Оформление проверено модератором 09 Июн 2024 08:29:23
Как cкачать  ·  Как раздать  ·  Правильно оформить  ·  Поднять ратио!  
Райлэндер
Стаж: 2 года 7 мес.
Сообщений: 11
Ratio: 29.092
100%
Откуда: Благовещенск
russia.gif
поиск дал 1977
sukaopa
Стаж: 12 лет 5 мес.
Сообщений: 528
Ratio: 0.644
100%
Откуда: Солнечный город
1975

_________________
Ну во-первых, это красиво!
danrecords
Стаж: 12 лет 7 мес.
Сообщений: 5381
Ratio: 9.182
Поблагодарили: 4
100%
Откуда: Беларусь, Минск
belarus.gif
Исторически и музыкально просто шикарно :клево: !

_________________
Слушать попсу нельзя!
Показать сообщения:   
Начать новую тему   Ответить на тему    Торрент-трекер NNM-Club -> HD Audio и Многоканальная Музыка -> Vinyl-Rip и Hand-Made Часовой пояс: GMT + 3
Страница 1 из 1