Классический форум-трекер
canvas not supported
Нас вместе: 4 232 399

Upscale видео с использованием AI (обсуждение, предложения, обмен опытом)


Страницы:   Пред.  1, 2, 3 ... 21, 22, 23 ... 31, 32, 33  След. 
 
RSS
Начать новую тему   Ответить на тему    Торрент-трекер NNM-Club -> Форум Видео -> Обработка Аудио & Видео

Upscale (AI) - это правда хорошо?!!
Хорошо
79%
 79%  [ 181 ]
Плохо
8%
 8%  [ 20 ]
Что такое Upscale?
12%
 12%  [ 28 ]
Всего голосов : 229

Автор Сообщение
Alone_Kedr ®
Куратор Сериалов
Зам. Куратора Видео, Модератор Талантов, Uploader 500+,
DJ Настроения
Стаж: 9 лет 10 мес.
Сообщений: 13341
Ratio: 10K
Поблагодарили: 544910
100%
Откуда: CCCP
ussr.gif
Современный зритель избалован визуальным контентом в высоком разрешении. Да и верхний предел качества картинки не установлен. Не беда, если видеоролик не отвечает стандартам, улучшить его качество помогут нейросети. Помогут ли?..Обработка видео с использованием ПО на базе искусственного интеллекта (AI)
 
Щебечем здесь на тему увеличения разрешения (обработки) видео с использованием программного обеспечения на базе искусственного интеллекта (AI)

Современный зритель избалован визуальным контентом в высоком разрешении. Да и верхний предел качества картинки не установлен. Не беда, если видеоролик не отвечает стандартам, улучшить его качество помогут нейросети. Помогут ли?..

YouTube YouTube YouTube
Взял старый ДВД-5 с фильмом МЕТЕЛЬ (1964) в котором четкости изображения практически нет

(будет в столбик, чтобы не перепутать - картинки не пронумерованы)





















результат -



Календарь
Стаж: 14 лет
Сообщений: 2084
Ratio: 17.383
Поблагодарили: 50484
100%
abramovicchh

в 4 версии модели стали умнее* (новые модели), сам оооочень долго привыкал к интерфейсу 4 версии, поверьте, улучшенные модельки ст0ят "мучений" разборок с GUI (ЕСЛИ РЕШИТЕСЬ, НЕ ЗАБУДЬТЕ ВКЛЮЧИТЬ ОТОБРАЖЕНИЕ ПРЕДЫДУШИХ ВЕРСИЙ МОДЕЛЕЙ В НАСТРОЙКАХ)
Календарь
Стаж: 14 лет
Сообщений: 2084
Ratio: 17.383
Поблагодарили: 50484
100%
анонс

Джордж Уолтон Лукас. Star Wars: Classic Trilogy: Episodes IV-VI (1977, 1980, 1983) BDRipAI H264/1080p

Видео-пробник 4-го эпизода https://wdho.ru/bmV7
Видео-пробник 5-го эпизода https://wdho.ru/bmY3
Видео-пробник 6-го эпизода https://wdho.ru/fz70
zubbilo
Стаж: 10 лет
Сообщений: 433
Ratio: 16.902
Поблагодарили: 2685
100%
ussr.gif
Мемуары гейши на подходе, посмотрим что получится на выходе...

Оказывается топаз напрочь отказывается показывать превью с блюрея, пришлось контейнер менять на mkv, тогда стало нормально...
Календарь
Стаж: 14 лет
Сообщений: 2084
Ratio: 17.383
Поблагодарили: 50484
100%
zubbilo

"менять" это просто сменили расширение файла или перегоняли в .mkv ?
zubbilo
Стаж: 10 лет
Сообщений: 433
Ratio: 16.902
Поблагодарили: 2685
100%
ussr.gif
Календарь писал(а): Перейти к сообщению
zubbilo

"менять" это просто сменили расширение файла или перегоняли в .mkv ?

Контейнер, без перекодировки - MKVToolNix всё исправил за 10 минут
TiGDiSH
Только чтение
Стаж: 4 мес. 17 дней
Сообщений: 43
Ratio: 7.994
7.81%
Календарь писал(а): Перейти к сообщению

анонс

Джордж Уолтон Лукас. Star Wars: Classic Trilogy: Episodes IV-VI (1977, 1980, 1983) BDRipAI H264/1080p

я извиняюсь - а Цензура Зачем? О нет

Есть великолепное 4К с плёнки, всех фильмов. Зачем? :мегашок:

Добавлено спустя 3 минуты 43 секунды:

zubbilo писал(а): Перейти к сообщению
напрочь отказывается показывать превью с блюрея

он не видит *.ts файлы, даже с HD-ресивера пишущего. Дело не в блю рай, а в контейнере.
Mastersnof
Стаж: 9 лет 8 мес.
Сообщений: 1375
Ratio: 8.39
Поблагодарили: 47050
100%
russia.gif
zubbilo
MakeMKV вам в помощь! :)
zubbilo
Стаж: 10 лет
Сообщений: 433
Ratio: 16.902
Поблагодарили: 2685
100%
ussr.gif
TiGDiSH
Он видит, распознаёт и не хочет показывать превью.

Добавлено спустя 1 минуту 11 секунд:

Mastersnof
У меня пока не большой список программ, в которые я могу..., Но большое спасибо :цветок:
Календарь
Стаж: 14 лет
Сообщений: 2084
Ratio: 17.383
Поблагодарили: 50484
100%
TiGDiSH писал(а): Перейти к сообщению
Календарь писал(а): Перейти к сообщению

анонс

Джордж Уолтон Лукас. Star Wars: Classic Trilogy: Episodes IV-VI (1977, 1980, 1983) BDRipAI H264/1080p

я извиняюсь - а Цензура Зачем? О нет
Есть великолепное 4К с плёнки, всех фильмов. Зачем? :мегашок:


- у меня нет 4к телевизора и HDR монитора
- мне лень брать 4к-исходники и даунскейлить их в 1080p, переводя hdr в sdr
- у меня лежат бд-ремуксы всех 6 эпизодов SW
- я не знаю сколько юзеров форума обладают 4к-HDR ТВ или мониторами, предполагаю что глубоко менее 50%

остановлюсь на этих причинах

===========
zubbilo

MakeMKV - конвертер, абсолютно излишний для цели обычной перепаковки видеопотока
Вам же нужно было всего лишь сменить контейнер, что Вы и сделали :клево:

============
Update

TiGDiSH

я посмотрел на трушке 4к релиз SW 4 эпизод, скачал семпл - разочарован.
(Звёздные войны: Эпизод 4 - Новая надежда / Star Wars: Episode IV - A New Hope (Джордж Лукас / George Lucas) [1977, UHD BDRemux 2160p, HDR10, Dolby Vision] [Hybrid] 3x Dub + 2x DVO + 3x MVO + 10x AVO + 3x VO + Original (Eng) + Sub (Rus, Eng))
General
Unique ID : 166092998509732053724705450901206151657 (0x7CF459127BF145DF054E3DA706CF31E9)
Complete name :Star.Wars.ANHDV.Sample.mkv
Format : Matroska
Format version : Version 4
File size : 754 MiB
Duration : 59 s 395 ms
Overall bit rate mode : Variable
Overall bit rate : 106 Mb/s
Movie name : Star Wars: Episode IV - A New Hope (1977) - Release by Dolby Vision Torrents / Star Wars: Episode IV - A New Hope (1977)
Encoded date : UTC 2021-10-15 18:18:28
Writing application : mkvmerge v60.0.0 ('Are We Copies?') 64-bit
Writing library : libebml v1.4.2 + libmatroska v1.6.4
Cover : Yes
Attachments : Cover.jpg
IMDB : tt0076759
TMDB : movie/11

Video
ID : 1
Format : HEVC
Format/Info : High Efficiency Video Coding
Format profile : Main 10@L5.1@High
HDR format : SMPTE ST 2086, HDR10 compatible
Codec ID : V_MPEGH/ISO/HEVC
Duration : 59 s 393 ms
Bit rate : 50.4 Mb/s
Width : 3 840 pixels
Height : 2 160 pixels
Display aspect ratio : 16:9
Frame rate mode : Constant
Frame rate : 23.976 (24000/1001) FPS
Color space : YUV
Chroma subsampling : 4:2:0 (Type 2)
Bit depth : 10 bits
Bits/(Pixel*Frame) : 0.254
Stream size : 357 MiB (47%)
Title : HYBRYD Remux by DVT
Writing library : ATEME Titan File 3.9.0 (4.9.0.0)
Language : English
Default : Yes
Forced : No
Color range : Limited
Color primaries : BT.2020
Transfer characteristics : PQ
Matrix coefficients : BT.2020 non-constant
Mastering display color primaries : BT.2020
Mastering display luminance : min: 0.0001 cd/m2, max: 1000 cd/m2

Audio #1
ID : 2
Format : DTS
Format/Info : Digital Theater Systems
Codec ID : A_DTS
Duration : 59 s 392 ms
Bit rate mode : Constant
Bit rate : 768 kb/s
Channel(s) : 6 channels
Channel layout : C L R Ls Rs LFE
Sampling rate : 48.0 kHz
Frame rate : 93.750 FPS (512 SPF)
Bit depth : 24 bits
Compression mode : Lossy
Delay relative to video : 3 ms
Stream size : 5.44 MiB (1%)
Title : Dub, CPIG (2010)
Language : Russian
Default : Yes
Forced : No

Audio #2
ID : 3
Format : AC-3
Format/Info : Audio Coding 3
Commercial name : Dolby Digital
Codec ID : A_AC3
Duration : 59 s 392 ms
Bit rate mode : Constant
Bit rate : 192 kb/s
Channel(s) : 2 channels
Channel layout : L R
Sampling rate : 48.0 kHz
Frame rate : 31.250 FPS (1536 SPF)
Compression mode : Lossy
Delay relative to video : 3 ms
Stream size : 1.36 MiB (0%)
Title : Dub, ORT (2006)
Language : Russian
Service kind : Complete Main
Default : No
Forced : No

Audio #3
ID : 4
Format : AC-3
Format/Info : Audio Coding 3
Commercial name : Dolby Digital
Codec ID : A_AC3
Duration : 59 s 392 ms
Bit rate mode : Constant
Bit rate : 192 kb/s
Channel(s) : 2 channels
Channel layout : L R
Sampling rate : 48.0 kHz
Frame rate : 31.250 FPS (1536 SPF)
Compression mode : Lossy
Delay relative to video : 3 ms
Stream size : 1.36 MiB (0%)
Title : Dub, Gorky Studio (1989)
Language : Russian
Service kind : Complete Main
Default : No
Forced : No

Audio #4
ID : 5
Format : DTS XLL
Format/Info : Digital Theater Systems
Commercial name : DTS-HD Master Audio
Codec ID : A_DTS
Duration : 59 s 392 ms
Bit rate mode : Variable
Bit rate : 4 499 kb/s
Channel(s) : 8 channels
Channel layout : C L R LFE Lb Rb Lss Rss
Sampling rate : 48.0 kHz
Frame rate : 93.750 FPS (512 SPF)
Bit depth : 24 bits
Compression mode : Lossless
Delay relative to video : 3 ms
Stream size : 31.9 MiB (4%)
Title : MVO, Karusel
Language : Russian
Default : No
Forced : No

Audio #5
ID : 6
Format : DTS XLL
Format/Info : Digital Theater Systems
Commercial name : DTS-HD Master Audio
Codec ID : A_DTS
Duration : 59 s 392 ms
Bit rate mode : Variable
Bit rate : 4 485 kb/s
Channel(s) : 8 channels
Channel layout : C L R LFE Lb Rb Lss Rss
Sampling rate : 48.0 kHz
Frame rate : 93.750 FPS (512 SPF)
Bit depth : 24 bits
Compression mode : Lossless
Delay relative to video : 3 ms
Stream size : 31.8 MiB (4%)
Title : DVO, Tycoon
Language : Russian
Default : No
Forced : No

Audio #6
ID : 7
Format : DTS XLL
Format/Info : Digital Theater Systems
Commercial name : DTS-HD Master Audio
Codec ID : A_DTS
Duration : 59 s 392 ms
Bit rate mode : Variable
Bit rate : 4 549 kb/s
Channel(s) : 8 channels
Channel layout : C L R LFE Lb Rb Lss Rss
Sampling rate : 48.0 kHz
Frame rate : 93.750 FPS (512 SPF)
Bit depth : 24 bits
Compression mode : Lossless
Delay relative to video : 3 ms
Stream size : 32.2 MiB (4%)
Title : DVO, Glanz
Language : Russian
Default : No
Forced : No

Audio #7
ID : 8
Format : DTS
Format/Info : Digital Theater Systems
Codec ID : A_DTS
Duration : 59 s 392 ms
Bit rate mode : Constant
Bit rate : 1 509 kb/s
Channel(s) : 2 channels
Channel layout : L R
Sampling rate : 48.0 kHz
Frame rate : 93.750 FPS (512 SPF)
Bit depth : 24 bits
Compression mode : Lossy
Delay relative to video : 3 ms
Stream size : 10.7 MiB (1%)
Title : MVO, RTR (Laser Video)
Language : Russian
Default : No
Forced : No

Audio #8
ID : 9
Format : AC-3
Format/Info : Audio Coding 3
Commercial name : Dolby Digital
Codec ID : A_AC3
Duration : 59 s 392 ms
Bit rate mode : Constant
Bit rate : 384 kb/s
Channel(s) : 6 channels
Channel layout : L R C LFE Ls Rs
Sampling rate : 48.0 kHz
Frame rate : 31.250 FPS (1536 SPF)
Compression mode : Lossy
Delay relative to video : 3 ms
Stream size : 2.72 MiB (0%)
Title : MVO, Kinomania
Language : Russian
Service kind : Complete Main
Default : No
Forced : No

Audio #9
ID : 10
Format : DTS XLL
Format/Info : Digital Theater Systems
Commercial name : DTS-HD Master Audio
Codec ID : A_DTS
Duration : 59 s 392 ms
Bit rate mode : Variable
Bit rate : 4 486 kb/s
Channel(s) : 8 channels
Channel layout : C L R LFE Lb Rb Lss Rss
Sampling rate : 48.0 kHz
Frame rate : 93.750 FPS (512 SPF)
Bit depth : 24 bits
Compression mode : Lossless
Delay relative to video : 3 ms
Stream size : 31.8 MiB (4%)
Title : AVO, A.Dolsky
Language : Russian
Default : No
Forced : No

Audio #10
ID : 11
Format : DTS XLL
Format/Info : Digital Theater Systems
Commercial name : DTS-HD Master Audio
Codec ID : A_DTS
Duration : 59 s 392 ms
Bit rate mode : Variable
Bit rate : 4 489 kb/s
Channel(s) : 8 channels
Channel layout : C L R LFE Lb Rb Lss Rss
Sampling rate : 48.0 kHz
Frame rate : 93.750 FPS (512 SPF)
Bit depth : 24 bits
Compression mode : Lossless
Delay relative to video : 3 ms
Stream size : 31.8 MiB (4%)
Title : AVO, A.Gavrilov
Language : Russian
Default : No
Forced : No

Audio #11
ID : 12
Format : DTS XLL
Format/Info : Digital Theater Systems
Commercial name : DTS-HD Master Audio
Codec ID : A_DTS
Duration : 59 s 392 ms
Bit rate mode : Variable
Bit rate : 4 548 kb/s
Channel(s) : 8 channels
Channel layout : C L R LFE Lb Rb Lss Rss
Sampling rate : 48.0 kHz
Frame rate : 93.750 FPS (512 SPF)
Bit depth : 24 bits
Compression mode : Lossless
Delay relative to video : 3 ms
Stream size : 32.2 MiB (4%)
Title : AVO, V.Gorchakov
Language : Russian
Default : No
Forced : No

Audio #12
ID : 13
Format : DTS XLL
Format/Info : Digital Theater Systems
Commercial name : DTS-HD Master Audio
Codec ID : A_DTS
Duration : 59 s 392 ms
Bit rate mode : Variable
Bit rate : 4 491 kb/s
Channel(s) : 8 channels
Channel layout : C L R LFE Lb Rb Lss Rss
Sampling rate : 48.0 kHz
Frame rate : 93.750 FPS (512 SPF)
Bit depth : 24 bits
Compression mode : Lossless
Delay relative to video : 3 ms
Stream size : 31.8 MiB (4%)
Title : AVO, Y.Serbin
Language : Russian
Default : No
Forced : No

Audio #13
ID : 14
Format : DTS XLL
Format/Info : Digital Theater Systems
Commercial name : DTS-HD Master Audio
Codec ID : A_DTS
Duration : 59 s 392 ms
Bit rate mode : Variable
Bit rate : 4 479 kb/s
Channel(s) : 8 channels
Channel layout : C L R LFE Lb Rb Lss Rss
Sampling rate : 48.0 kHz
Frame rate : 93.750 FPS (512 SPF)
Bit depth : 24 bits
Compression mode : Lossless
Delay relative to video : 3 ms
Stream size : 31.7 MiB (4%)
Title : AVO, Y.Zhivov
Language : Russian
Default : No
Forced : No

Audio #14
ID : 15
Format : DTS XLL
Format/Info : Digital Theater Systems
Commercial name : DTS-HD Master Audio
Codec ID : A_DTS
Duration : 59 s 392 ms
Bit rate mode : Variable
Bit rate : 4 485 kb/s
Channel(s) : 8 channels
Channel layout : C L R LFE Lb Rb Lss Rss
Sampling rate : 48.0 kHz
Frame rate : 93.750 FPS (512 SPF)
Bit depth : 24 bits
Compression mode : Lossless
Delay relative to video : 3 ms
Stream size : 31.8 MiB (4%)
Title : AVO, A.Mihalev (early)
Language : Russian
Default : No
Forced : No

Audio #15
ID : 16
Format : AC-3
Format/Info : Audio Coding 3
Commercial name : Dolby Digital
Codec ID : A_AC3
Duration : 59 s 392 ms
Bit rate mode : Constant
Bit rate : 192 kb/s
Channel(s) : 2 channels
Channel layout : L R
Sampling rate : 48.0 kHz
Frame rate : 31.250 FPS (1536 SPF)
Compression mode : Lossy
Delay relative to video : 3 ms
Stream size : 1.36 MiB (0%)
Title : AVO, A.Mihalev (late)
Language : Russian
Service kind : Complete Main
Default : No
Forced : No

Audio #16
ID : 17
Format : AC-3
Format/Info : Audio Coding 3
Commercial name : Dolby Digital
Codec ID : A_AC3
Duration : 59 s 392 ms
Bit rate mode : Constant
Bit rate : 192 kb/s
Channel(s) : 2 channels
Channel layout : L R
Sampling rate : 48.0 kHz
Frame rate : 31.250 FPS (1536 SPF)
Compression mode : Lossy
Delay relative to video : 3 ms
Stream size : 1.36 MiB (0%)
Title : AVO, L.Volodarsky
Language : Russian
Service kind : Complete Main
Default : No
Forced : No

Audio #17
ID : 18
Format : AC-3
Format/Info : Audio Coding 3
Commercial name : Dolby Digital
Codec ID : A_AC3
Duration : 59 s 392 ms
Bit rate mode : Constant
Bit rate : 192 kb/s
Channel(s) : 2 channels
Channel layout : L R
Sampling rate : 48.0 kHz
Frame rate : 31.250 FPS (1536 SPF)
Compression mode : Lossy
Delay relative to video : 3 ms
Stream size : 1.36 MiB (0%)
Title : AVO, A.Kashkin
Language : Russian
Service kind : Complete Main
Default : No
Forced : No

Audio #18
ID : 19
Format : DTS
Format/Info : Digital Theater Systems
Codec ID : A_DTS
Duration : 59 s 392 ms
Bit rate mode : Constant
Bit rate : 1 509 kb/s
Channel(s) : 2 channels
Channel layout : L R
Sampling rate : 48.0 kHz
Frame rate : 93.750 FPS (512 SPF)
Bit depth : 24 bits
Compression mode : Lossy
Delay relative to video : 3 ms
Stream size : 10.7 MiB (1%)
Title : AVO, M.Latyshev
Language : Russian
Default : No
Forced : No

Audio #19
ID : 20
Format : DTS XLL
Format/Info : Digital Theater Systems
Commercial name : DTS-HD Master Audio
Codec ID : A_DTS
Duration : 59 s 392 ms
Bit rate mode : Variable
Bit rate : 4 491 kb/s
Channel(s) : 8 channels
Channel layout : C L R LFE Lb Rb Lss Rss
Sampling rate : 48.0 kHz
Frame rate : 93.750 FPS (512 SPF)
Bit depth : 24 bits
Compression mode : Lossless
Delay relative to video : 3 ms
Stream size : 31.8 MiB (4%)
Title : VO, V.Zhuchkov
Language : Russian
Default : No
Forced : No

Audio #20
ID : 21
Format : AC-3
Format/Info : Audio Coding 3
Commercial name : Dolby Digital
Codec ID : A_AC3
Duration : 59 s 392 ms
Bit rate mode : Constant
Bit rate : 192 kb/s
Channel(s) : 2 channels
Channel layout : L R
Sampling rate : 48.0 kHz
Frame rate : 31.250 FPS (1536 SPF)
Compression mode : Lossy
Delay relative to video : 3 ms
Stream size : 1.36 MiB (0%)
Title : VO, E.Baikov
Language : Russian
Service kind : Complete Main
Default : No
Forced : No

Audio #21
ID : 22
Format : AC-3
Format/Info : Audio Coding 3
Commercial name : Dolby Digital
Codec ID : A_AC3
Duration : 59 s 392 ms
Bit rate mode : Constant
Bit rate : 192 kb/s
Channel(s) : 2 channels
Channel layout : L R
Sampling rate : 48.0 kHz
Frame rate : 31.250 FPS (1536 SPF)
Compression mode : Lossy
Delay relative to video : 3 ms
Stream size : 1.36 MiB (0%)
Title : VO, V.Belov
Language : Russian
Service kind : Complete Main
Default : No
Forced : No

Audio #22
ID : 23
Format : AC-3
Format/Info : Audio Coding 3
Commercial name : Dolby Digital
Codec ID : A_AC3
Duration : 59 s 392 ms
Bit rate mode : Constant
Bit rate : 192 kb/s
Channel(s) : 2 channels
Channel layout : L R
Sampling rate : 48.0 kHz
Frame rate : 31.250 FPS (1536 SPF)
Compression mode : Lossy
Delay relative to video : 3 ms
Stream size : 1.36 MiB (0%)
Title : MVO, 1plus1
Language : Ukrainian
Service kind : Complete Main
Default : No
Forced : No

Audio #23
ID : 24
Format : AC-3
Format/Info : Audio Coding 3
Commercial name : Dolby Digital
Codec ID : A_AC3
Duration : 59 s 392 ms
Bit rate mode : Constant
Bit rate : 192 kb/s
Channel(s) : 2 channels
Channel layout : L R
Sampling rate : 48.0 kHz
Frame rate : 31.250 FPS (1536 SPF)
Compression mode : Lossy
Delay relative to video : 3 ms
Stream size : 1.36 MiB (0%)
Title : MVO, ICTV
Language : Ukrainian
Service kind : Complete Main
Default : No
Forced : No

Audio #24
ID : 25
Format : MLP FBA 16-ch
Format/Info : Meridian Lossless Packing FBA with 16-channel presentation
Commercial name : Dolby TrueHD with Dolby Atmos
Codec ID : A_TRUEHD
Duration : 59 s 394 ms
Bit rate mode : Variable
Bit rate : 3 943 kb/s
Maximum bit rate : 6 165 kb/s
Channel(s) : 8 channels
Channel layout : L R C LFE Ls Rs Lb Rb
Sampling rate : 48.0 kHz
Frame rate : 1 200.000 FPS (40 SPF)
Compression mode : Lossless
Stream size : 27.9 MiB (4%)
Title : Original
Language : English
Default : No
Forced : No
Number of dynamic objects : 13
Bed channel count : 1 channel
Bed channel configuration : LFE

Audio #25
ID : 26
Format : AC-3
Format/Info : Audio Coding 3
Commercial name : Dolby Digital
Codec ID : A_AC3
Duration : 59 s 392 ms
Bit rate mode : Constant
Bit rate : 640 kb/s
Channel(s) : 6 channels
Channel layout : L R C LFE Ls Rs
Sampling rate : 48.0 kHz
Frame rate : 31.250 FPS (1536 SPF)
Compression mode : Lossy
Delay relative to video : 3 ms
Stream size : 4.53 MiB (1%)
Title : Original
Language : English
Service kind : Complete Main
Default : No
Forced : No

Audio #26
ID : 27
Format : AC-3
Format/Info : Audio Coding 3
Commercial name : Dolby Digital
Codec ID : A_AC3
Duration : 59 s 392 ms
Bit rate mode : Constant
Bit rate : 224 kb/s
Channel(s) : 2 channels
Channel layout : L R
Sampling rate : 48.0 kHz
Frame rate : 31.250 FPS (1536 SPF)
Compression mode : Lossy
Delay relative to video : 3 ms
Stream size : 1.59 MiB (0%)
Title : Commentary by George Lucas/Carrie Fisher/Ben Burtt/Dennis Muren
Language : English
Service kind : Complete Main
Default : No
Forced : No

Audio #27
ID : 28
Format : AC-3
Format/Info : Audio Coding 3
Commercial name : Dolby Digital
Codec ID : A_AC3
Duration : 59 s 392 ms
Bit rate mode : Constant
Bit rate : 224 kb/s
Channel(s) : 2 channels
Channel layout : L R
Sampling rate : 48.0 kHz
Frame rate : 31.250 FPS (1536 SPF)
Compression mode : Lossy
Delay relative to video : 3 ms
Stream size : 1.59 MiB (0%)
Title : Commentary from Archival Interviews with Cast/Crew
Language : English
Service kind : Complete Main
Default : No
Forced : No

Text #1
ID : 29
Format : UTF-8
Codec ID : S_TEXT/UTF8
Codec ID/Info : UTF-8 Plain Text
Bit rate : 0 b/s
Count of elements : 0
Stream size : 0.00 Byte (0%)
Title : Forced, Blu-Ray
Language : Russian
Default : Yes
Forced : No

Text #2
ID : 30
Format : UTF-8
Codec ID : S_TEXT/UTF8
Codec ID/Info : UTF-8 Plain Text
Duration : 35 s 619 ms
Bit rate : 100 b/s
Count of elements : 7
Stream size : 449 Bytes (0%)
Title : Full, R5
Language : Russian
Default : No
Forced : No

Text #3
ID : 31
Format : UTF-8
Codec ID : S_TEXT/UTF8
Codec ID/Info : UTF-8 Plain Text
Duration : 40 s 51 ms
Bit rate : 96 b/s
Count of elements : 8
Stream size : 484 Bytes (0%)
Title : Full, Kinomania
Language : Russian
Default : No
Forced : No

Text #4
ID : 32
Format : UTF-8
Codec ID : S_TEXT/UTF8
Codec ID/Info : UTF-8 Plain Text
Duration : 40 s 375 ms
Bit rate : 99 b/s
Count of elements : 10
Stream size : 502 Bytes (0%)
Title : Full, Tycoon
Language : Russian
Default : No
Forced : No

Text #5
ID : 33
Format : UTF-8
Codec ID : S_TEXT/UTF8
Codec ID/Info : UTF-8 Plain Text
Bit rate : 0 b/s
Count of elements : 0
Stream size : 0.00 Byte (0%)
Title : Forced
Language : English
Default : No
Forced : No

Text #6
ID : 34
Format : UTF-8
Codec ID : S_TEXT/UTF8
Codec ID/Info : UTF-8 Plain Text
Duration : 35 s 618 ms
Bit rate : 52 b/s
Count of elements : 7
Stream size : 235 Bytes (0%)
Title : Full
Language : English
Default : No
Forced : No

Text #7
ID : 35
Format : UTF-8
Codec ID : S_TEXT/UTF8
Codec ID/Info : UTF-8 Plain Text
Duration : 40 s 749 ms
Bit rate : 51 b/s
Count of elements : 10
Stream size : 262 Bytes (0%)
Title : Full SDH
Language : English
Default : No
Forced : No

Menu
00:00:00.000 : Obi-Wan vs. Vader
смотреть на обычном, не HDR мониторе такое невозможно, и даже если абстрагироваться от цветности - четкость картинки ниже плинтуса, апскейл, пусть даже и "с плёнки", некачественный.

после просмотра появилась еще одна причина (для меня) заняться SW 4-6
TiGDiSH
Только чтение
Стаж: 4 мес. 17 дней
Сообщений: 43
Ratio: 7.994
7.81%
Календарь писал(а): Перейти к сообщению
я посмотрел на трушке 4к релиз SW 4 эпизод

не показатель качества совсем. На западных есть ремуксы 4К последнего выпуска с пленки, качество выше чем предыдущие выпуски. Они коллекционные, потому поздно и выложили. Вес каждого ремукса за 80ГБ.
Календарь
Стаж: 14 лет
Сообщений: 2084
Ratio: 17.383
Поблагодарили: 50484
100%
TiGDiSH писал(а): Перейти к сообщению
Календарь писал(а): Перейти к сообщению
я посмотрел на трушке 4к релиз SW 4 эпизод

не показатель качества совсем. На западных есть ремуксы 4К последнего выпуска с пленки, качество выше чем предыдущие выпуски. Они коллекционные, потому поздно и выложили. Вес каждого ремукса за 80ГБ.

Общие слова и не одной конкретной ссылки или сравнения. Даже если и лучше, я не планирую заказывать новый телевизор ради нескольких фильмов в ультрахд. Или даунгрейдить разрешение и переводить хдр в обычный диапазон (разговор ведь начался с целесообразности релиза в 1080p)
TiGDiSH
Только чтение
Стаж: 4 мес. 17 дней
Сообщений: 43
Ratio: 7.994
7.81%
Календарь писал(а): Перейти к сообщению
и не одной конкретной ссылки

бан за сторонние ссылки. Правила! А диск был скачен (все три первые части 4-6), но в порыве плохого настроения, все 10ТВ разного скаченого улетели в мусор (очищены).
Календарь
Стаж: 14 лет
Сообщений: 2084
Ratio: 17.383
Поблагодарили: 50484
100%
TiGDiSH писал(а): Перейти к сообщению
Календарь писал(а): Перейти к сообщению
и не одной конкретной ссылки

бан за сторонние ссылки. Правила! А диск был скачен (все три первые части 4-6), но в порыве плохого настроения, все 10ТВ разного скаченого улетели в мусор (очищены).

ясно. спасибо, Вы помогли мне бесцельно потратить несколько часов времени :клево: , чтобы в очередной раз убедиться в том, что я и так уже знал.
kohora
Стаж: 12 лет 5 мес.
Сообщений: 85
Ratio: 1.209
100%
russia.gif
Появились вопросы
1) если есть файл vob как его соотношение сторон делать правильно если увеличиваешь в два раза соотношение остается
2) и как два enhacement тут я видел скрины делают комбо обработку видео из двух enhacement, но у себя такого не вижу он блочит замком

Календарь
Стаж: 14 лет
Сообщений: 2084
Ratio: 17.383
Поблагодарили: 50484
100%
kohora

ДВД практически всегда содержат анаморфное видео, т.е. пиксель изображения на нем не имеет квадратную форму (PAR отличен от 1:1), в Топазе нужно выставить square pixel для правильной* пропорции выходного видео. Если Вы не видите вариантов выбора пикселя - значит Pixel Aspect Ratio (PAR) = 1:1
Предупреждение - если вы цифруете сразу с ДВД, с VOB файлов, а после хотите склеить части в единый файл, то может (не всегда) появиться передергиваание кадра* в выходном потоке. Безопаснее соединить (это быстро, неск. минут) все VOB в единый файл (напр. mkvmerge GUI), и его уже обрабатывать в Топазе (помним про квадратный пиксель!).
Комбо моделей активируется в настройках.
Для более стабильной работы программы, нужно ограничить использование памяти видеокарты (напр. до 60-75%)

более наглядно на скриншотах -




Показать сообщения:   
Начать новую тему   Ответить на тему    Торрент-трекер NNM-Club -> Форум Видео -> Обработка Аудио & Видео Часовой пояс: GMT + 3
Страницы:   Пред.  1, 2, 3 ... 21, 22, 23 ... 31, 32, 33  След.
Страница 22 из 33