Классический форум-трекер
canvas not supported
Нас вместе: 4 215 655

Ajin OVA | Полулюди OVA [2016, OVA, 3 из 3] BDRemux 1080p raw


 
 
RSS
Начать новую тему   Ответить на тему    Торрент-трекер NNM-Club -> Аниме разное -> Аниме Blu-ray, Remux
Автор Сообщение
хИНАРИх ®
Uploader 100+
Стаж: 6 лет
Сообщений: 946
Ratio: 16K
Раздал: 249.1 TB
Поблагодарили: 13511
100%
roody.gif
Ajin OVA | Полулюди OVA
Жанр: Триллер, мистика, сэйнэн
Тип: OVA
Количество серий: 3 из 3
Продолжительность: 3 серии по 24 минуты
Период выхода: с 06.05.2016 по 07.04.2017
Производство: Polygon Pictures
Режиссер: Сэсита Хироюки
Снято по манге: Ajin
Автор оригинала: Сакурай Гамон
Ссылки: World-Art, Ani-DB, Shikimori
Описание: В мире «Адзина» семнадцать лет назад появился первый бессмертный – где-то в Африке посреди очередного конфликта. С тех пор такие вот неведомые неубиваемые «формы жизни» начали возникать то здесь, то там, и их стали называть адзинами (или полулюдьми). К моменту начала действия их существует по крайней мере сорок шесть. Сорок седьмым становится японский школьник Кей Нагаи, накануне летних каникул погибший в автомобильной аварии по пути домой, но возродивший. Вскоре Кей выясняет, что бессмертие – это не круто. Супергероем он не стал, а вот нежелательное внимание всяких тайных правительственных организаций к себе привлёк, и теперь за его голову назначена награда, а в глазах общества он не более чем занятная диковинка, которую необходимо поскорее сдать на опыты (само собой, бесчеловечные). Не прельстившись перспективой по расписанию умирать и воскресать в какой-нибудь мрачной лаборатории до конца своих дней, Кей пускается в бега...
Качество видео: BDRemux
Видео: AVC, 8 bit, 1920x1080, ~21.7 Mb/s
Аудио: DTS, 6ch, 48 KHz, 3646 Kb/s | Звук: Японский
Субтитры: Русские, Английские
Перевод от: [YakuSub Studio]
General
Complete name : [npz] Ajin OAD - 01 (US BD REMUX, 1080p) [177C1137].mkv
Format : Matroska
Format version : Version 2
File size : 3.87 GiB
Duration : 21 min 54 s
Overall bit rate mode : Variable
Overall bit rate : 25.3 Mb/s
Movie name : 01 The Shinya Nakamura Incident
Encoded date : UTC 2020-12-31 01:05:45
Writing application : MakeMKV v1.15.3 win(x64-release)
Writing library : libmakemkv v1.15.3 (1.3.10/1.5.2) win(x64-release)

Video
ID : 1
ID in the original source m : 4113 (0x1011)
Format : AVC
Format/Info : Advanced Video Codec
Format profile : High@L4.1
Format settings : CABAC / 4 Ref Frames
Format settings, CABAC : Yes
Format settings, Reference : 4 frames
Codec ID : V_MPEG4/ISO/AVC
Duration : 21 min 54 s
Bit rate mode : Variable
Bit rate : 21.7 Mb/s
Maximum bit rate : 35.0 Mb/s
Width : 1 920 pixels
Height : 1 080 pixels
Display aspect ratio : 16:9
Frame rate mode : Constant
Frame rate : 23.976 (24000/1001) FPS
Color space : YUV
Chroma subsampling : 4:2:0
Bit depth : 8 bits
Scan type : Progressive
Bits/(Pixel*Frame) : 0.436
Stream size : 3.32 GiB (86%)
Language : English
Default : No
Forced : No
Original source medium : Blu-ray

Audio
ID : 2
ID in the original source m : 4352 (0x1100)
Format : DTS XLL
Format/Info : Digital Theater Systems
Commercial name : DTS-HD Master Audio
Codec ID : A_DTS
Duration : 21 min 9 s
Bit rate mode : Variable
Bit rate : 3 646 kb/s
Channel(s) : 6 channels
Channel layout : C L R Ls Rs LFE
Sampling rate : 48.0 kHz
Frame rate : 93.750 FPS (512 SPF)
Bit depth : 24 bits
Compression mode : Lossless
Stream size : 552 MiB (14%)
Title : Surround 5.1
Language : Japanese
Default : Yes
Forced : No
Original source medium : Blu-ray

Text
ID : 3
ID in the original source m : 4608 (0x1200)
Format : PGS
Codec ID : S_HDMV/PGS
Codec ID/Info : Picture based subtitle format used on BDs/HD-DVDs
Duration : 20 min 49 s
Bit rate : 46.8 kb/s
Count of elements : 545
Stream size : 6.97 MiB (0%)
Language : English
Default : Yes
Forced : No
Original source medium : Blu-ray

Menu
00:00:00.000 : en:Chapter 01
00:00:42.375 : en:Chapter 02
00:02:12.799 : en:Chapter 03
00:09:54.844 : en:Chapter 04
00:19:38.093 : en:Chapter 05
00:21:09.268 : en:Chapter 06
01. The Nakamura Shinya Incident
02. Intermission
03. Satou: Zero



Время раздачи: круглосуточно
[NNMClub.to]_Ajin OVA -- [Polulyudi OVA].torrent
 Торрент: Платиновая раздача  Зарегистрирован
 
Скачать


Примагнититься
 Зарегистрирован:   03 Май 2021 08:13:42
 Размер:   12.3 GB  (
 Рейтинг:   5 (Голосов: 15)
 Поблагодарили:   19
 Проверка:   Оформление проверено модератором 08 Май 2021 12:37:47
Как cкачать  ·  Как раздать  ·  Правильно оформить  ·  Поднять ратио!  
samuraijack
Стаж: 8 лет 1 мес.
Сообщений: 19
Ratio: 2.224
2.05%
Это переиздание ранее выпущенного сериала? Описание один в один как в нем.
хИНАРИх ®
Uploader 100+
Стаж: 6 лет
Сообщений: 946
Ratio: 16K
Раздал: 249.1 TB
Поблагодарили: 13511
100%
roody.gif
samuraijack писал(а): Перейти к сообщению
Это переиздание ранее выпущенного сериала? Описание один в один как в нем.


Нет, это не переиздание.
В оформлении есть 3 ссылки, можете пройти и почитать подробнее.
Показать сообщения:   
Начать новую тему   Ответить на тему    Торрент-трекер NNM-Club -> Аниме разное -> Аниме Blu-ray, Remux Часовой пояс: GMT + 3
Страница 1 из 1