Классический форум-трекер
canvas not supported
Нас вместе: 4 231 718

Bobina - Rocket Ride (Album) (2011) [FLAC|Lossless] <Trance>


 
 
RSS
Начать новую тему   Ответить на тему    Торрент-трекер NNM-Club -> Архив торрентов -> Архив Музыки
Автор Сообщение
Trance_&a​mp;_Progr​essive​ ®
Стаж: 13 лет 1 мес.
Сообщений: 233
Ratio: 3.233
Поблагодарили: 2703
100%
Откуда: Kingdom of the Netherlands
netherlands.gif
BOBINA - ROCKET RIDE
Год: 2011
Жанр: Trance
Лейбл: Open-Gate Records
Каталог#: ПРЗ CD02508
Тип рипа: tracks+.cue
Источник: CD
Наличие сканов: присутствуют
Продолжительность: 00:58:10

Кодек: FLAC
Битрейт: LOSSLESS


Треклист:

01. Here Comes The Night (01:52)
02. Visible Touch (08:25)
03. You Belong To Me (feat. Betsie Larkin) (04:53)
04. Rocket Ride (05:52)
05. Angel Of The North (feat. Sabrina Altan) (05:25)
06. Pune (07:23)
07. Let You In (feat. Erin Marsz) (06:02)
08. Lamento Sentimental (06:55)
09. Caught In The Rain (feat. Alan Connor) (03:51)
10. Scream Dream (with Ilya Soloviev) (07:26)

Код:

Exact Audio Copy V1.0 beta 2 from 29. April 2011

EAC extraction logfile from 15. August 2011, 18:19

Bobina / Rocket Ride

Used drive  : PIONEER DVD-RW  DVR-218L   Adapter: 2  ID: 1

Read mode               : Secure
Utilize accurate stream : Yes
Defeat audio cache      : Yes
Make use of C2 pointers : No

Read offset correction                      : 6
Overread into Lead-In and Lead-Out          : No
Fill up missing offset samples with silence : Yes
Delete leading and trailing silent blocks   : No
Null samples used in CRC calculations       : Yes
Used interface                              : Installed external ASPI interface
Gap handling                                : Appended to previous track

Used output format              : User Defined Encoder
Selected bitrate                : 128 kBit/s
Quality                         : High
Add ID3 tag                     : No
Command line compressor         : C:\Program Files\Exact Audio Copy\Flac\flac.exe
Additional command line options : -8 -V -T "ARTIST=%artist%" -T "TITLE=%title%" -T "ALBUM=%albumtitle%" -T "DATE=%year%" -T "TRACKNUMBER=%tracknr%" -T "GENRE=%genre%" -T "COMMENT=ripped by serginho199" %source%

TOC of the extracted CD

     Track |   Start  |  Length  | Start sector | End sector
    ---------------------------------------------------------
        1  |  0:00.00 |  1:52.46 |         0    |     8445
        2  |  1:52.46 |  8:25.63 |      8446    |    46383
        3  | 10:18.34 |  4:53.40 |     46384    |    68398
        4  | 15:11.74 |  5:52.63 |     68399    |    94861
        5  | 21:04.62 |  5:25.71 |     94862    |   119307
        6  | 26:30.58 |  7:23.32 |    119308    |   152564
        7  | 33:54.15 |  6:02.73 |    152565    |   179787
        8  | 39:57.13 |  6:55.68 |    179788    |   210980
        9  | 46:53.06 |  3:51.62 |    210981    |   228367
       10  | 50:44.68 |  7:26.07 |    228368    |   261824

Track  1

     Filename E:\My Rips\Bobina - Rocket Ride (2011)\01. Bobina – Here Comes The Night.wav

     Pre-gap length  0:00:02.00

     Peak level 98.8 %
     Extraction speed 0.9 X
     Track quality 100.0 %
     Test CRC A4FAE3E5
     Copy CRC A4FAE3E5
     Track not present in AccurateRip database
     Copy OK

Track  2

     Filename E:\My Rips\Bobina - Rocket Ride (2011)\02. Bobina – Visible Touch.wav

     Peak level 98.8 %
     Extraction speed 1.3 X
     Track quality 100.0 %
     Test CRC 769579DE
     Copy CRC 769579DE
     Track not present in AccurateRip database
     Copy OK

Track  3

     Filename E:\My Rips\Bobina - Rocket Ride (2011)\03. Bobina – You Belong To Me (feat. Betsie Larkin).wav

     Peak level 98.2 %
     Extraction speed 1.4 X
     Track quality 100.0 %
     Test CRC 3D454BDC
     Copy CRC 3D454BDC
     Track not present in AccurateRip database
     Copy OK

Track  4

     Filename E:\My Rips\Bobina - Rocket Ride (2011)\04. Bobina – Rocket Ride.wav

     Peak level 98.8 %
     Extraction speed 1.6 X
     Track quality 100.0 %
     Test CRC 02B298D9
     Copy CRC 02B298D9
     Track not present in AccurateRip database
     Copy OK

Track  5

     Filename E:\My Rips\Bobina - Rocket Ride (2011)\05. Bobina – Angel Of The North (feat. Sabrina Altan).wav

     Peak level 98.8 %
     Extraction speed 1.7 X
     Track quality 100.0 %
     Test CRC DCCD7D00
     Copy CRC DCCD7D00
     Track not present in AccurateRip database
     Copy OK

Track  6

     Filename E:\My Rips\Bobina - Rocket Ride (2011)\06. Bobina – Pune.wav

     Peak level 98.9 %
     Extraction speed 1.9 X
     Track quality 100.0 %
     Test CRC 3A022052
     Copy CRC 3A022052
     Track not present in AccurateRip database
     Copy OK

Track  7

     Filename E:\My Rips\Bobina - Rocket Ride (2011)\07. Bobina – Let You In (feat. Erin Marsz).wav

     Peak level 98.8 %
     Extraction speed 2.0 X
     Track quality 100.0 %
     Test CRC 558156E8
     Copy CRC 558156E8
     Track not present in AccurateRip database
     Copy OK

Track  8

     Filename E:\My Rips\Bobina - Rocket Ride (2011)\08. Bobina – Lamento Sentimental.wav

     Peak level 98.8 %
     Extraction speed 2.1 X
     Track quality 100.0 %
     Test CRC 43F90051
     Copy CRC 43F90051
     Track not present in AccurateRip database
     Copy OK

Track  9

     Filename E:\My Rips\Bobina - Rocket Ride (2011)\09. Bobina – Caught In The Rain (feat. Alan Connor).wav

     Peak level 98.8 %
     Extraction speed 2.1 X
     Track quality 100.0 %
     Test CRC F3B2CB67
     Copy CRC F3B2CB67
     Track not present in AccurateRip database
     Copy OK

Track 10

     Filename E:\My Rips\Bobina - Rocket Ride (2011)\10. Bobina – Scream Dream (with Ilya Soloviev).wav

     Peak level 98.8 %
     Extraction speed 2.3 X
     Track quality 100.0 %
     Test CRC 8C67E0E7
     Copy CRC 8C67E0E7
     Track not present in AccurateRip database
     Copy OK

None of the tracks are present in the AccurateRip database

No errors occurred

End of status report

==== Log checksum 4AE9EC49EA2BD7CFBFC12071ABC71C4F0E96FC9E43E22FB97B5B6EE4B0224987 ====

Время раздачи: С 09:00 до 24:00 (до 3-х скачавших круглосуточно, остальное время по возможности) / 7 / GMT +02:00
[NNM-Club.ru]_Bobina_-_Rocket_Ride_(LOSSLESS).torrent
 Торрент: Платиновая раздача  Зарегистрирован
 
Скачать


 Зарегистрирован:   01 Сен 2011 20:30:36
 Размер:   525 MB  (
 Рейтинг:   4.5 (Голосов: 19)
 Поблагодарили:   48
 Проверка:   Оформление проверено модератором 01 Сен 2011 21:15:02
Как cкачать  ·  Как раздать  ·  Правильно оформить  ·  Поднять ратио!  
Trance_&a​mp;_Progr​essive​ ®
Стаж: 13 лет 1 мес.
Сообщений: 233
Ratio: 3.233
Поблагодарили: 2703
100%
Откуда: Kingdom of the Netherlands
netherlands.gif

MP3

_________________
sedoy-2012
Стаж: 14 лет 10 мес.
Сообщений: 79
Ratio: 12.616
58.17%
Откуда: Из леса вестимо!
pirates.png
Trance_&_Progressive

От души братан!

_________________

2oo9
Покровитель талантов
Стаж: 13 лет 9 мес.
Сообщений: 1335
Ratio: 50.495
Поблагодарили: 19263
100%
Спасибо!!!
Trance_&a​mp;_Progr​essive​ ®
Стаж: 13 лет 1 мес.
Сообщений: 233
Ratio: 3.233
Поблагодарили: 2703
100%
Откуда: Kingdom of the Netherlands
netherlands.gif
sedoy-2012 и 2oo9, не за что! Приятного прослушивания!

_________________
sedoy-2012
Стаж: 14 лет 10 мес.
Сообщений: 79
Ratio: 12.616
58.17%
Откуда: Из леса вестимо!
pirates.png
Trance_&_Progressive писал(а): Перейти к сообщению
sedoy-2012 и 2oo9, не за что! Приятного прослушивания!

уважаю Российский trance!

_________________

kirishun
Стаж: 14 лет 3 мес.
Сообщений: 56
Ratio: 1.451
100%
ukraine.gif
Спасибо!
andrey_gordeeff
Стаж: 12 лет 3 мес.
Сообщений: 1
russia.gif
куль альбом
Топик был перенесен из форума Trance (Lossless) в форум Архив Музыки

Причина переноса: Длительное отсутствие сида на протяжении более 6 месяцев.

Исправил релиз - напиши ЛС kudzin, дав ссылку на релиз.
Если нет ответа 24 часа - нажми на кнопку "Обратить внимание модераторов".
Показать сообщения:   
Начать новую тему   Ответить на тему    Торрент-трекер NNM-Club -> Архив торрентов -> Архив Музыки Часовой пояс: GMT + 3
Страница 1 из 1