Классический форум-трекер
canvas not supported
Нас вместе: 4 231 711

Пираты Карибского Моря: На Странных Берегах / Pirates Of The Caribbean: On Stranger Tides (2011) [FLAC|Lossless] <Score>


 
 
RSS
Начать новую тему   Ответить на тему    Торрент-трекер NNM-Club -> Other Styles -> OST (Lossless)
Автор Сообщение
Trance_&a​mp;_Progr​essive​ ®
Стаж: 13 лет 1 мес.
Сообщений: 233
Ratio: 3.233
Поблагодарили: 2703
100%
Откуда: Kingdom of the Netherlands
netherlands.gif
Пираты Карибского Моря: НА СТРАННЫХ БЕРЕГАХ / Pirates Of The Caribbean: ON STRANGER TIDES
Music by Hans Zimmer Featuring Rodrigo y Gabriela

Год: 2011
Страна: USA
Композитор: Hans Zimmer with Rodrigo Y Gabriela
Жанр: OST, Score, Soundtrack
Лейбл: Walt Disney Records
Источник: What.CD
Тип рипа: tracks+.cue
Наличие сканов: присутствуют
Продолжительность: 01:17:47

Кодек: FLAC
Битрейт: LOSSLESS


Треклист:

01. Hans Zimmer - Guilty Of Being Innocent Of Being Jack Sparrow (01:44)
02. Hans Zimmer - Angelica (Featuring Rodrigo Y Gabriela) (04:17)
03. Hans Zimmer - Mutiny (02:48)
04. Rodrigo Y Gabriela - The Pirate That Should Not Be (03:55)
05. Hans Zimmer - Mermaids (08:05)
06. Rodrigo Y Gabriela - South Of Heaven's Chanting Mermaids (05:48)
07. Hans Zimmer - Palm Tree Escape (Featuring Rodrigo Y Gabriela) (03:06)
08. Hans Zimmer - Blackbeard (05:05)
09. Rodrigo Y Gabriela - Angry And Dead Again (05:33)
10. Hans Zimmer - On Stranger Tides (02:44)
11. Hans Zimmer - End Credits (01:59)
12. Hans Zimmer - Guilty Of Being Innocent Of Being Jack Sparrow (Remixed By DJ Earworm) (02:45)
13. Rodrigo Y Gabriela - Angelica (Grant Us Peace Remix) (Remixed By Ki:Theor) (03:08)
14. Rodrigo Y Gabriela - The Pirate That Should Not Be (Remixed By Photek) (06:26)
15. Hans Zimmer - Blackbeard (Remixed By Super Mash Bros & Thieves) (05:26)
16. Rodrigo Y Gabriela - South Of Heaven's Chanting Mermaids (Remixed By Paper Diamond) (03:32)
17. Rodrigo Y Gabriela - Palm Tree Escape (Remixed By Adam Freeland) (05:27)
18. Rodrigo Y Gabriela - Angry And Dead Again (Remixed By Static Revenger) (05:49)

Код:
X Lossless Decoder version 20110515 (133.1)

XLD extraction logfile from 2011-05-17 21:48:30 -0500

Various Artists / Pirates Of The Caribbean: On Stranger Tides

Used drive : MATSHITA DVD-R   UJ-868 (revision KB19)

Ripper mode             : CDParanoia III 10.2
Disable audio cache     : OK for the drive with a cache less than 2750KiB
Make use of C2 pointers : NO
Read offset correction  : 102
Max retry count         : 100
Gap status              : Analyzed, Appended

TOC of the extracted CD
     Track |   Start  |  Length  | Start sector | End sector
    ---------------------------------------------------------
        1  | 00:01:40 | 01:42:40 |       115    |     7804
        2  | 01:44:05 | 04:17:36 |      7805    |    27115
        3  | 06:01:41 | 02:48:68 |     27116    |    39783
        4  | 08:50:34 | 03:55:64 |     39784    |    57472
        5  | 12:46:23 | 08:05:04 |     57473    |    93851
        6  | 20:51:27 | 05:48:46 |     93852    |   119997
        7  | 26:39:73 | 03:06:18 |    119998    |   133965
        8  | 29:46:16 | 05:05:36 |    133966    |   156876
        9  | 34:51:52 | 05:33:52 |    156877    |   181903
       10  | 40:25:29 | 02:44:31 |    181904    |   194234
       11  | 43:09:60 | 01:59:70 |    194235    |   203229
       12  | 45:09:55 | 02:45:66 |    203230    |   215670
       13  | 47:55:46 | 03:08:62 |    215671    |   229832
       14  | 51:04:33 | 06:26:10 |    229833    |   258792
       15  | 57:30:43 | 05:26:69 |    258793    |   283311
       16  | 62:57:37 | 03:32:63 |    283312    |   299274
       17  | 66:30:25 | 05:27:74 |    299275    |   323873
       18  | 71:58:24 | 05:49:51 |    323874    |   350099

AccurateRip Summary
    Disc not found in AccurateRip DB.

All Tracks
    Album gain             : -4.95 dB
    Peak                   : 0.992188
    Statistics
        Read error                           : 0
        Skipped (treated as error)           : 0
        Edge jitter error (maybe fixed)      : 0
        Atom jitter error (maybe fixed)      : 0
        Drift error (maybe fixed)            : 0
        Dropped bytes error (maybe fixed)    : 0
        Duplicated bytes error (maybe fixed) : 0

Track 01
    Filename : /Users/dtesta/Desktop/tempMusic/Music/Compilations - 2011 - Pirates Of The Caribbeanпјљ On Stranger Tides [FLAC]/01 Guilty Of Being Innocent Of Being Jack Sparrow.flac
    Pre-gap length : 00:03:40

    Track gain             : -3.77 dB
    Peak                   : 0.991211
    CRC32 hash (test run)  : 7722E6D7
    CRC32 hash             : 7722E6D7
    CRC32 hash (skip zero) : 5AA12CC4
    AccurateRip signature  : 10C4A540
        ->Track not present in AccurateRip database.
    Statistics
        Read error                           : 0
        Skipped (treated as error)           : 0
        Edge jitter error (maybe fixed)      : 0
        Atom jitter error (maybe fixed)      : 0
        Drift error (maybe fixed)            : 0
        Dropped bytes error (maybe fixed)    : 0
        Duplicated bytes error (maybe fixed) : 0
        Inconsistency in error sectors       : 0

Track 02
    Filename : /Users/dtesta/Desktop/tempMusic/Music/Compilations - 2011 - Pirates Of The Caribbeanпјљ On Stranger Tides [FLAC]/02 Angelica (Featuring Rodrigo Y Gabriela).flac
    Pre-gap length : 00:02:01

    Track gain             : -1.89 dB
    Peak                   : 0.787415
    CRC32 hash (test run)  : EAE2146E
    CRC32 hash             : EAE2146E
    CRC32 hash (skip zero) : 42BF14D4
    AccurateRip signature  : FBB3E504
        ->Track not present in AccurateRip database.
    Statistics
        Read error                           : 0
        Skipped (treated as error)           : 0
        Edge jitter error (maybe fixed)      : 0
        Atom jitter error (maybe fixed)      : 0
        Drift error (maybe fixed)            : 0
        Dropped bytes error (maybe fixed)    : 0
        Duplicated bytes error (maybe fixed) : 0
        Inconsistency in error sectors       : 0

Track 03
    Filename : /Users/dtesta/Desktop/tempMusic/Music/Compilations - 2011 - Pirates Of The Caribbeanпјљ On Stranger Tides [FLAC]/03 Mutiny.flac
    Pre-gap length : 00:02:00

    Track gain             : -6.67 dB
    Peak                   : 0.966125
    CRC32 hash (test run)  : 70F05FDE
    CRC32 hash             : 70F05FDE
    CRC32 hash (skip zero) : 82103367
    AccurateRip signature  : 0B44A93E
        ->Track not present in AccurateRip database.
    Statistics
        Read error                           : 0
        Skipped (treated as error)           : 0
        Edge jitter error (maybe fixed)      : 0
        Atom jitter error (maybe fixed)      : 0
        Drift error (maybe fixed)            : 0
        Dropped bytes error (maybe fixed)    : 0
        Duplicated bytes error (maybe fixed) : 0
        Inconsistency in error sectors       : 0

Track 04
    Filename : /Users/dtesta/Desktop/tempMusic/Music/Compilations - 2011 - Pirates Of The Caribbeanпјљ On Stranger Tides [FLAC]/04 The Pirate That Should Not Be.flac
    Pre-gap length : 00:01:66

    Track gain             : -0.85 dB
    Peak                   : 0.545929
    CRC32 hash (test run)  : 3105ED54
    CRC32 hash             : 3105ED54
    CRC32 hash (skip zero) : 93224CF9
    AccurateRip signature  : 43CFB9AF
        ->Track not present in AccurateRip database.
    Statistics
        Read error                           : 0
        Skipped (treated as error)           : 0
        Edge jitter error (maybe fixed)      : 0
        Atom jitter error (maybe fixed)      : 0
        Drift error (maybe fixed)            : 0
        Dropped bytes error (maybe fixed)    : 0
        Duplicated bytes error (maybe fixed) : 0
        Inconsistency in error sectors       : 0

Track 05
    Filename : /Users/dtesta/Desktop/tempMusic/Music/Compilations - 2011 - Pirates Of The Caribbeanпјљ On Stranger Tides [FLAC]/05 Mermaids.flac
    Pre-gap length : 00:02:17

    Track gain             : -5.11 dB
    Peak                   : 0.966125
    CRC32 hash (test run)  : D04F9E58
    CRC32 hash             : D04F9E58
    CRC32 hash (skip zero) : 23924FC8
    AccurateRip signature  : 688CD8A6
        ->Track not present in AccurateRip database.
    Statistics
        Read error                           : 0
        Skipped (treated as error)           : 0
        Edge jitter error (maybe fixed)      : 0
        Atom jitter error (maybe fixed)      : 0
        Drift error (maybe fixed)            : 0
        Dropped bytes error (maybe fixed)    : 0
        Duplicated bytes error (maybe fixed) : 0
        Inconsistency in error sectors       : 0

Track 06
    Filename : /Users/dtesta/Desktop/tempMusic/Music/Compilations - 2011 - Pirates Of The Caribbeanпјљ On Stranger Tides [FLAC]/06 South Of Heaven's Chanting Mermaids.flac
    Pre-gap length : 00:01:43

    Track gain             : 2.34 dB
    Peak                   : 0.543976
    CRC32 hash (test run)  : BA7A921D
    CRC32 hash             : BA7A921D
    CRC32 hash (skip zero) : D3AE6A77
    AccurateRip signature  : 536F74AF
        ->Track not present in AccurateRip database.
    Statistics
        Read error                           : 0
        Skipped (treated as error)           : 0
        Edge jitter error (maybe fixed)      : 0
        Atom jitter error (maybe fixed)      : 0
        Drift error (maybe fixed)            : 0
        Dropped bytes error (maybe fixed)    : 0
        Duplicated bytes error (maybe fixed) : 0
        Inconsistency in error sectors       : 0

Track 07
    Filename : /Users/dtesta/Desktop/tempMusic/Music/Compilations - 2011 - Pirates Of The Caribbeanпјљ On Stranger Tides [FLAC]/07 Palm Tree Escape (Featuring Rodrigo Y Gabriela).flac
    Pre-gap length : 00:01:64

    Track gain             : -7.48 dB
    Peak                   : 0.966125
    CRC32 hash (test run)  : D92D689E
    CRC32 hash             : D92D689E
    CRC32 hash (skip zero) : 6083D0AE
    AccurateRip signature  : 95A07A96
        ->Track not present in AccurateRip database.
    Statistics
        Read error                           : 0
        Skipped (treated as error)           : 0
        Edge jitter error (maybe fixed)      : 0
        Atom jitter error (maybe fixed)      : 0
        Drift error (maybe fixed)            : 0
        Dropped bytes error (maybe fixed)    : 0
        Duplicated bytes error (maybe fixed) : 0
        Inconsistency in error sectors       : 0

Track 08
    Filename : /Users/dtesta/Desktop/tempMusic/Music/Compilations - 2011 - Pirates Of The Caribbeanпјљ On Stranger Tides [FLAC]/08 Blackbeard.flac
    Pre-gap length : 00:01:57

    Track gain             : -6.50 dB
    Peak                   : 0.992188
    CRC32 hash (test run)  : 46693D32
    CRC32 hash             : 46693D32
    CRC32 hash (skip zero) : 50B70099
    AccurateRip signature  : 8D9B7883
        ->Track not present in AccurateRip database.
    Statistics
        Read error                           : 0
        Skipped (treated as error)           : 0
        Edge jitter error (maybe fixed)      : 0
        Atom jitter error (maybe fixed)      : 0
        Drift error (maybe fixed)            : 0
        Dropped bytes error (maybe fixed)    : 0
        Duplicated bytes error (maybe fixed) : 0
        Inconsistency in error sectors       : 0

Track 09
    Filename : /Users/dtesta/Desktop/tempMusic/Music/Compilations - 2011 - Pirates Of The Caribbeanпјљ On Stranger Tides [FLAC]/09 Angry And Dead Again.flac
    Pre-gap length : 00:01:66

    Track gain             : -0.93 dB
    Peak                   : 0.648041
    CRC32 hash (test run)  : 4449D38B
    CRC32 hash             : 4449D38B
    CRC32 hash (skip zero) : 8A43822A
    AccurateRip signature  : 8EE57C4F
        ->Track not present in AccurateRip database.
    Statistics
        Read error                           : 0
        Skipped (treated as error)           : 0
        Edge jitter error (maybe fixed)      : 0
        Atom jitter error (maybe fixed)      : 0
        Drift error (maybe fixed)            : 0
        Dropped bytes error (maybe fixed)    : 0
        Duplicated bytes error (maybe fixed) : 0
        Inconsistency in error sectors       : 0

Track 10
    Filename : /Users/dtesta/Desktop/tempMusic/Music/Compilations - 2011 - Pirates Of The Caribbeanпјљ On Stranger Tides [FLAC]/10 On Stranger Tides.flac
    Pre-gap length : 00:01:32

    Track gain             : -6.88 dB
    Peak                   : 0.973480
    CRC32 hash (test run)  : 617A7B5F
    CRC32 hash             : 617A7B5F
    CRC32 hash (skip zero) : 39869DB7
    AccurateRip signature  : B76C114C
        ->Track not present in AccurateRip database.
    Statistics
        Read error                           : 0
        Skipped (treated as error)           : 0
        Edge jitter error (maybe fixed)      : 0
        Atom jitter error (maybe fixed)      : 0
        Drift error (maybe fixed)            : 0
        Dropped bytes error (maybe fixed)    : 0
        Duplicated bytes error (maybe fixed) : 0
        Inconsistency in error sectors       : 0

Track 11
    Filename : /Users/dtesta/Desktop/tempMusic/Music/Compilations - 2011 - Pirates Of The Caribbeanпјљ On Stranger Tides [FLAC]/11 End Credits.flac
    Pre-gap length : 00:01:66

    Track gain             : -7.15 dB
    Peak                   : 0.967712
    CRC32 hash (test run)  : A277D7B1
    CRC32 hash             : A277D7B1
    CRC32 hash (skip zero) : 148D3D1D
    AccurateRip signature  : 78A9C0DF
        ->Track not present in AccurateRip database.
    Statistics
        Read error                           : 0
        Skipped (treated as error)           : 0
        Edge jitter error (maybe fixed)      : 0
        Atom jitter error (maybe fixed)      : 0
        Drift error (maybe fixed)            : 0
        Dropped bytes error (maybe fixed)    : 0
        Duplicated bytes error (maybe fixed) : 0
        Inconsistency in error sectors       : 0

Track 12
    Filename : /Users/dtesta/Desktop/tempMusic/Music/Compilations - 2011 - Pirates Of The Caribbeanпјљ On Stranger Tides [FLAC]/12 Guilty Of Being Innocent Of Being Jack Sparrow (Remixed By DJ Earworm).flac
    Pre-gap length : 00:02:60

    Track gain             : -2.07 dB
    Peak                   : 0.911072
    CRC32 hash (test run)  : E2FA1B2E
    CRC32 hash             : E2FA1B2E
    CRC32 hash (skip zero) : B6A902A3
    AccurateRip signature  : 0AA72521
        ->Track not present in AccurateRip database.
    Statistics
        Read error                           : 0
        Skipped (treated as error)           : 0
        Edge jitter error (maybe fixed)      : 0
        Atom jitter error (maybe fixed)      : 0
        Drift error (maybe fixed)            : 0
        Dropped bytes error (maybe fixed)    : 0
        Duplicated bytes error (maybe fixed) : 0
        Inconsistency in error sectors       : 0

Track 13
    Filename : /Users/dtesta/Desktop/tempMusic/Music/Compilations - 2011 - Pirates Of The Caribbeanпјљ On Stranger Tides [FLAC]/13 Angelica (Grant Us Peace Remix) (Remixed By KiпјљTheory).flac

    Track gain             : -5.22 dB
    Peak                   : 0.600281
    CRC32 hash (test run)  : 286AB2F6
    CRC32 hash             : 286AB2F6
    CRC32 hash (skip zero) : EFFA6644
    AccurateRip signature  : EFCB883F
        ->Track not present in AccurateRip database.
    Statistics
        Read error                           : 0
        Skipped (treated as error)           : 0
        Edge jitter error (maybe fixed)      : 0
        Atom jitter error (maybe fixed)      : 0
        Drift error (maybe fixed)            : 0
        Dropped bytes error (maybe fixed)    : 0
        Duplicated bytes error (maybe fixed) : 0
        Inconsistency in error sectors       : 0

Track 14
    Filename : /Users/dtesta/Desktop/tempMusic/Music/Compilations - 2011 - Pirates Of The Caribbeanпјљ On Stranger Tides [FLAC]/14 The Pirate That Should Not Be (Remixed By Photek).flac

    Track gain             : -3.65 dB
    Peak                   : 0.966095
    CRC32 hash (test run)  : 5008B16F
    CRC32 hash             : 5008B16F
    CRC32 hash (skip zero) : 7B1F70F5
    AccurateRip signature  : FD545274
        ->Track not present in AccurateRip database.
    Statistics
        Read error                           : 0
        Skipped (treated as error)           : 0
        Edge jitter error (maybe fixed)      : 0
        Atom jitter error (maybe fixed)      : 0
        Drift error (maybe fixed)            : 0
        Dropped bytes error (maybe fixed)    : 0
        Duplicated bytes error (maybe fixed) : 0
        Inconsistency in error sectors       : 0

Track 15
    Filename : /Users/dtesta/Desktop/tempMusic/Music/Compilations - 2011 - Pirates Of The Caribbeanпјљ On Stranger Tides [FLAC]/15 Blackbeard (Remixed By Super Mash Bros & Thieves).flac

    Track gain             : -2.60 dB
    Peak                   : 0.767548
    CRC32 hash (test run)  : DA4F0D01
    CRC32 hash             : DA4F0D01
    CRC32 hash (skip zero) : 4425D798
    AccurateRip signature  : 4467A398
        ->Track not present in AccurateRip database.
    Statistics
        Read error                           : 0
        Skipped (treated as error)           : 0
        Edge jitter error (maybe fixed)      : 0
        Atom jitter error (maybe fixed)      : 0
        Drift error (maybe fixed)            : 0
        Dropped bytes error (maybe fixed)    : 0
        Duplicated bytes error (maybe fixed) : 0
        Inconsistency in error sectors       : 0

Track 16
    Filename : /Users/dtesta/Desktop/tempMusic/Music/Compilations - 2011 - Pirates Of The Caribbeanпјљ On Stranger Tides [FLAC]/16 South Of Heaven's Chanting Mermaids (Remixed By Paper Diamond).flac
    Pre-gap length : 00:02:23

    Track gain             : -2.49 dB
    Peak                   : 0.754395
    CRC32 hash (test run)  : 5CB8642D
    CRC32 hash             : 5CB8642D
    CRC32 hash (skip zero) : 9ED8578C
    AccurateRip signature  : E2FB5BD0
        ->Track not present in AccurateRip database.
    Statistics
        Read error                           : 0
        Skipped (treated as error)           : 0
        Edge jitter error (maybe fixed)      : 0
        Atom jitter error (maybe fixed)      : 0
        Drift error (maybe fixed)            : 0
        Dropped bytes error (maybe fixed)    : 0
        Duplicated bytes error (maybe fixed) : 0
        Inconsistency in error sectors       : 0

Track 17
    Filename : /Users/dtesta/Desktop/tempMusic/Music/Compilations - 2011 - Pirates Of The Caribbeanпјљ On Stranger Tides [FLAC]/17 Palm Tree Escape (Remixed By Adam Freeland).flac

    Track gain             : -2.31 dB
    Peak                   : 0.966125
    CRC32 hash (test run)  : D5323810
    CRC32 hash             : D5323810
    CRC32 hash (skip zero) : 4AE7126B
    AccurateRip signature  : 54D04DB7
        ->Track not present in AccurateRip database.
    Statistics
        Read error                           : 0
        Skipped (treated as error)           : 0
        Edge jitter error (maybe fixed)      : 0
        Atom jitter error (maybe fixed)      : 0
        Drift error (maybe fixed)            : 0
        Dropped bytes error (maybe fixed)    : 0
        Duplicated bytes error (maybe fixed) : 0
        Inconsistency in error sectors       : 0

Track 18
    Filename : /Users/dtesta/Desktop/tempMusic/Music/Compilations - 2011 - Pirates Of The Caribbeanпјљ On Stranger Tides [FLAC]/18 Angry And Dead Again (Remixed By Static Revenger).flac
    Pre-gap length : 00:00:73

    Track gain             : -3.86 dB
    Peak                   : 0.636658
    CRC32 hash (test run)  : 67E3BB61
    CRC32 hash             : 67E3BB61
    CRC32 hash (skip zero) : 13104BF8
    AccurateRip signature  : 72E2E53D
        ->Track not present in AccurateRip database.
    Statistics
        Read error                           : 0
        Skipped (treated as error)           : 0
        Edge jitter error (maybe fixed)      : 0
        Atom jitter error (maybe fixed)      : 0
        Drift error (maybe fixed)            : 0
        Dropped bytes error (maybe fixed)    : 0
        Duplicated bytes error (maybe fixed) : 0
        Inconsistency in error sectors       : 0

No errors occurred

End of status report
Код:
-----------------------

DON'T MODIFY THIS FILE

-----------------------

PERFORMER: auCDtect Task Manager, ver. 1.5.1RC4 build 1.5.1.5
Copyright (c) 2008-2010 y-soft. All rights reserved
http://y-soft.org

ANALYZER: auCDtect: CD records authenticity detector, version 0.8.2
Copyright (c) 2004 Oleg Berngardt. All rights reserved.
Copyright (c) 2004 Alexander Djourik. All rights reserved.

FILE: 18 Angry And Dead Again (Remixed By Static Revenger).flac
  Size: 39221125 Hash: 6AC36245D8D27DA4D0A5F1DA40A90EBE Accuracy: -m0
  Conclusion: CDDA 100%
  Signature: 542DF41D490703C7606783FCAA2327C69D98906E
FILE: 17 Palm Tree Escape (Remixed By Adam Freeland).flac
  Size: 34028530 Hash: 117F42ADC9DD682AA35213195C81CDA7 Accuracy: -m0
  Conclusion: CDDA 100%
  Signature: 3644EAC7BBE91F0A4DB286D6EA3586D1846F1E52
FILE: 16 South Of Heaven's Chanting Mermaids (Remixed By Paper Diamond).flac
  Size: 24168138 Hash: 8974A9DE12B3D0D6C0F09DCB9D136219 Accuracy: -m0
  Conclusion: CDDA 100%
  Signature: BEB207857BA813EBE28590DB5B4F1E3663314F7D
FILE: 15 Blackbeard (Remixed By Super Mash Bros & Thieves).flac
  Size: 32349751 Hash: E4A8A81607330AD855738AABE9563596 Accuracy: -m0
  Conclusion: MPEG 95%
  Signature: 3C02EC430658DAFDA9CE3A28C5F646E017CEC91D
FILE: 14 The Pirate That Should Not Be (Remixed By Photek).flac
  Size: 35841004 Hash: F7C947CBE342A46BAD2DBAF5FEA311A7 Accuracy: -m0
  Conclusion: CDDA 100%
  Signature: 0B78A8D7007FA774FBF468729E62E2BF34764FB4
FILE: 13 Angelica (Grant Us Peace Remix) (Remixed By Ki Theory).flac
  Size: 18871127 Hash: 8E995974475A0663F5B857C13E7C1615 Accuracy: -m0
  Conclusion: CDDA 100%
  Signature: CF40CAFC29A8AABB748744931C63A4A201A206B7
FILE: 12 Guilty Of Being Innocent Of Being Jack Sparrow (Remixed By DJ Earworm).flac
  Size: 17431453 Hash: C88CB5D0C91E6C10DF86C7ED1FD57887 Accuracy: -m0
  Conclusion: CDDA 100%
  Signature: 48A57FF271201BCEA00CA1BBB7ADE2A76EE968AC
FILE: 11 End Credits.flac
  Size: 13843077 Hash: 7560DD90DC6A3B2956F4FE7044891584 Accuracy: -m0
  Conclusion: CDDA 100%
  Signature: C1AC72B2CA967DD8BB27062FD73F6D4AEB849889
FILE: 10 On Stranger Tides.flac
  Size: 14595133 Hash: 27E03D25AAE52FCFFC46894D98F232F5 Accuracy: -m0
  Conclusion: CDDA 100%
  Signature: 480A29FBF9F9BDB35EDD845AB4EF3B6034327A60
FILE: 09 Angry And Dead Again.flac
  Size: 28567731 Hash: DD5D052C88B7A2054DF951FF6CB853E8 Accuracy: -m0
  Conclusion: CDDA 100%
  Signature: B12A623DA157656466578AE6C73F47BEEFD23E16
FILE: 08 Blackbeard.flac
  Size: 28341511 Hash: FD374A3D5F5E5488D73751797BCDD33E Accuracy: -m0
  Conclusion: CDDA 100%
  Signature: 0C90F3E6514FFF2603EF17CAA67F0316A3B5D18E
FILE: 07 Palm Tree Escape (Featuring Rodrigo Y Gabriela).flac
  Size: 19973274 Hash: 8E7F16EDCAF5147C310A999F0FB2BDC3 Accuracy: -m0
  Conclusion: CDDA 100%
  Signature: F440CC55E94EF2ED889AE605F89710839EBB6F2B
FILE: 06 South Of Heaven's Chanting Mermaids.flac
  Size: 25944567 Hash: 2D5B3F04F18E5B97253792CCA250C08C Accuracy: -m0
  Conclusion: CDDA 100%
  Signature: AAC34409C25EC9FC5E4AD36199D476548984E95A
FILE: 05 Mermaids.flac
  Size: 43485078 Hash: CA09C7A7A9F26E1077E6475B24E1F56E Accuracy: -m0
  Conclusion: CDDA 100%
  Signature: 486F826B490D8BDBD014262C51483526F87CF9F3
FILE: 04 The Pirate That Should Not Be.flac
  Size: 21767807 Hash: 2BA07A13C19741DAE7066D5CD1DF5D24 Accuracy: -m0
  Conclusion: CDDA 100%
  Signature: 1BAA41702DD3BEF75C1E786D56D60AC7930BF9E4
FILE: 03 Mutiny.flac
  Size: 19255812 Hash: DD2A451990F41E150E0649321581EDC1 Accuracy: -m0
  Conclusion: CDDA 100%
  Signature: 96A014E948A765176421971B9FBDBAF60C45D124
FILE: 02 Angelica (Featuring Rodrigo Y Gabriela).flac
  Size: 23128701 Hash: EE07D40BC05BEF5EB816ECAF3BDED005 Accuracy: -m0
  Conclusion: CDDA 100%
  Signature: 663F28FFA84954102E0B0B7426432319F5D53888
FILE: 01 Guilty Of Being Innocent Of Being Jack Sparrow.flac
  Size: 9611882 Hash: B449716AF0448E56CEA6F946EF63BB6D Accuracy: -m0
  Conclusion: CDDA 100%
  Signature: 355FA6CD96D1E0E85365593A0212FE6E94F1371D


Время раздачи: С 09:00 до 24:00 (до 3-х скачавших круглосуточно, остальное время по возможности) / 7 / GMT +02:00
[NNM-Club.ru]_Hans_Zimmer_&_Rodrigo_Y_Gabriela_-_Pirates_Of_The_Caribbean._On_Stranger_Tides_(2011)_[LOSSLESS].torrent
 Торрент: Платиновая раздача  Зарегистрирован
 
Скачать


 Зарегистрирован:   12 Сен 2011 18:22:42
 Размер:   438 MB  (
 Рейтинг:   4.6 (Голосов: 24)
 Поблагодарили:   65
 Проверка:   Оформление проверено модератором 13 Сен 2011 11:38:06
Как cкачать  ·  Как раздать  ·  Правильно оформить  ·  Поднять ратио!  
Knazev
Стаж: 12 лет 2 мес.
Сообщений: 91
Ratio: 2.508
Раздал: 868 GB
100%
так себе
Показать сообщения:   
Начать новую тему   Ответить на тему    Торрент-трекер NNM-Club -> Other Styles -> OST (Lossless) Часовой пояс: GMT + 3
Страница 1 из 1