Классический форум-трекер
canvas not supported
Нас вместе: 4 235 315

Покахонтас / Pocahontas (1995, 1998) [720p] BDRip [дилогия]


 
 
RSS
Начать новую тему   Ответить на тему    Торрент-трекер NNM-Club -> Мультфильмы -> Зарубежные Мультфильмы (коллекции, сборники / *логии)
Автор Сообщение
Lelya_K ®
Стаж: 13 лет 4 мес.
Сообщений: 5536
Ratio: 7169.418
Раздал: 109.3 TB
Поблагодарили: 629905
100%
Откуда: Московская область
nnm-club.gif
Покахонтас / Pocahontas (1995) BDRip
«Two different worlds. One true love.»

Русское название: Покахонтас
Оригинальное название: Pocahontas
Год выпуска: 1995
Производство: Walt Disney Pictures / США
Жанр: Мультфильм, мюзикл, мелодрама, семейный

Описание фильма:
Из Европы отправляется в Новый Свет корабль с нашим героем Джоном Смитом. Экипаж, как объясняет капитан, плывет навстречу приключениям, успеху, богатству. Но сам капитан намерен найти там нечто вполне определенное — золото. А живут в Америке индейцы, и рассказ пойдет о благородной принцессе Покахонтас.


Режиссер: Майк Гэбриел, Эрик Голдберг
Продюсер: Джеймс Пентекост, Бэйкер Бладуорф
Актеры: Мэл Гибсон, Кристиан Бэйл, Джуди Кун, Ирен Бедард, Дэвид Огден Стайерз, Джон Кассир, Рассел Минс, Линда Хант, Дэнни Манн, Билли Коннолли

Продолжительность: 01:21:08
Перевод: Дублированный / Профессиональный многоголосый, закадровый / Авторский одноголосый, закадровый (Гаврилов)
Субтитры: Вшитые, отключаемые
Язык субтитров: Русский, английский



Дата мировой премьеры: 15 июня 1995
Дата выхода DVD релиза: 27 марта 2012, «Уолт Дисней Компани СНГ»
Дата выхода Blu-Ray релиза: 27 марта 2012, «Уолт Дисней Компани СНГ»

Видеокодек: MPEG4_AVC/H.264
Качество видео: BDRip
Размер кадра: 1280х720
Битрейт видео: ~4259 kbps, Бит/(Пиксели*Кадры): 0.193
Аудио 1: AC3 5.1, 448 kbps [Русский] - Дублированный
Аудио 2: AC3 5.1, 448 kbps [Русский] - Многоголосый закадровый
Аудио 3: AC3 5.1, 448 kbps [Русский] - Одноголосый закадровый
Аудио 4: DTS 5.1, 1510 kbps [Английский] - Оригинал
Полное имя : D:\Покахонтас-Pocahontas.(1995).720p.BDRip.mkv
Формат : Matroska
Версия формата : Version 2
Размер файла : 4,03 Гбайт
Продолжительность : 1 ч. 21 м.
Общий поток : 7114 Кбит/сек
Дата кодирования : UTC 2012-03-22 02:06:01
Программа кодирования : mkvmerge v4.6.0 ('Still Crazy After All These Years') сборка от Mar 10 2011 02:50:32
Библиотека кодирования : libebml v1.2.0 + libmatroska v1.1.0

Видео
Идентификатор : 1
Формат : AVC
Формат/Информация : Advanced Video Codec
Профиль формата : High@L4.1
Параметр CABAC формата : Да
Параметр ReFrames формата : 5 кадров
Идентификатор кодека : V_MPEG4/ISO/AVC
Продолжительность : 1 ч. 21 м.
Битрейт : 4259 Кбит/сек
Ширина : 1280 пикс.
Высота : 720 пикс.
Соотношение сторон : 16:9
Частота кадров : 23,976 кадр/сек
Цветовое пространство : YUV
Подвыборка цветности : 4:2:0
Битовая глубина : 8 бит
Тип развёртки : Прогрессивная
Бит/(Пиксели*Кадры) : 0.193
Размер потока : 2,33 Гбайт (58%)
Библиотека кодирования : x264 core 122 r2184 5c85e0a
Настройки программы : cabac=1 / ref=5 / deblock=1:0:0 / analyse=0x3:0x133 / me=umh / subme=8 / psy=1 / psy_rd=1.00:0.00 / mixed_ref=1 / me_range=16 / chroma_me=1 / trellis=1 / 8x8dct=1 / cqm=0 / deadzone=21,11 / fast_pskip=0 / chroma_qp_offset=-2 / threads=12 / sliced_threads=0 / nr=0 / decimate=1 / interlaced=0 / bluray_compat=0 / constrained_intra=0 / bframes=3 / b_pyramid=2 / b_adapt=1 / b_bias=0 / direct=1 / weightb=1 / open_gop=0 / weightp=2 / keyint=250 / keyint_min=23 / scenecut=40 / intra_refresh=0 / rc_lookahead=40 / rc=2pass / mbtree=1 / bitrate=4259 / ratetol=1.0 / qcomp=0.60 / qpmin=0 / qpmax=69 / qpstep=4 / cplxblur=20.0 / qblur=0.5 / ip_ratio=1.40 / aq=1:1.00
Язык : English

Аудио #1
Идентификатор : 2
Формат : AC-3
Формат/Информация : Audio Coding 3
Расширение режима : CM (complete main)
Идентификатор кодека : A_AC3
Продолжительность : 1 ч. 21 м.
Вид битрейта : Постоянный
Битрейт : 448 Кбит/сек
Каналы : 6 каналов
Расположение каналов : Front: L C R, Side: L R, LFE
Частота : 48,0 КГц
Битовая глубина : 16 бит
Метод сжатия : С потерями
Размер потока : 260 Мбайт (6%)
Заголовок : Дубляж
Язык : Russian

Аудио #2
Идентификатор : 3
Формат : AC-3
Формат/Информация : Audio Coding 3
Расширение режима : CM (complete main)
Идентификатор кодека : A_AC3
Продолжительность : 1 ч. 21 м.
Вид битрейта : Постоянный
Битрейт : 448 Кбит/сек
Каналы : 6 каналов
Расположение каналов : Front: L C R, Side: L R, LFE
Частота : 48,0 КГц
Битовая глубина : 16 бит
Метод сжатия : С потерями
Задержка видео : 3 с. 200 мс.
Размер потока : 260 Мбайт (6%)
Заголовок : Многоголосый
Язык : Russian

Аудио #3
Идентификатор : 4
Формат : AC-3
Формат/Информация : Audio Coding 3
Расширение режима : CM (complete main)
Идентификатор кодека : A_AC3
Продолжительность : 1 ч. 21 м.
Вид битрейта : Постоянный
Битрейт : 448 Кбит/сек
Каналы : 6 каналов
Расположение каналов : Front: L C R, Side: L R, LFE
Частота : 48,0 КГц
Битовая глубина : 16 бит
Метод сжатия : С потерями
Задержка видео : 3 с. 300 мс.
Размер потока : 260 Мбайт (6%)
Заголовок : Гаврилов
Язык : Russian

Аудио #4
Идентификатор : 5
Формат : DTS
Формат/Информация : Digital Theater Systems
Идентификатор кодека : A_DTS
Продолжительность : 1 ч. 21 м.
Вид битрейта : Постоянный
Битрейт : 1510 Кбит/сек
Каналы : 6 каналов
Расположение каналов : Front: L C R, Side: L R, LFE
Частота : 48,0 КГц
Битовая глубина : 24 бит
Метод сжатия : С потерями
Задержка видео : 11 мс.
Размер потока : 876 Мбайт (21%)

Текст #1
Идентификатор : 6
Формат : UTF-8
Идентификатор кодека : S_TEXT/UTF8
Идентификатор кодека/Информация : UTF-8 Plain Text
Заголовок : Русские
Язык : Russian

Текст #2
Идентификатор : 7
Формат : UTF-8
Идентификатор кодека : S_TEXT/UTF8
Идентификатор кодека/Информация : UTF-8 Plain Text
Заголовок : Английские
Язык : English

Меню
00:00:00.000 : :Chapter 1
00:03:56.467 : :Chapter 2
00:05:25.967 : :Chapter 3
00:07:37.601 : :Chapter 4
00:10:46.468 : :Chapter 5
00:12:34.468 : :Chapter 6
00:15:04.801 : :Chapter 7
00:16:44.601 : :Chapter 8
00:18:09.601 : :Chapter 9
00:22:35.101 : :Chapter 10
00:24:56.768 : :Chapter 11
00:28:46.101 : :Chapter 12
00:33:27.134 : :Chapter 13
00:35:54.434 : :Chapter 14
00:39:12.601 : :Chapter 15
00:43:07.268 : :Chapter 16
00:45:31.268 : :Chapter 17
00:47:56.969 : :Chapter 18
00:50:33.769 : :Chapter 19
00:54:01.469 : :Chapter 20
00:55:57.102 : :Chapter 21
01:01:43.435 : :Chapter 22
01:03:31.801 : :Chapter 23
01:05:24.101 : :Chapter 24
01:06:33.134 : :Chapter 25
01:07:39.968 : :Chapter 26
01:10:44.601 : :Chapter 27
01:15:28.435 : :Chapter 28
Оскар, 1996 год

Победитель (2):
• Лучшая песня — «Colors of the Wind»
• Лучший саундтрек к музыкальному/комедийному фильму

Золотой глобус, 1996 год

Победитель (1):
• Лучшая песня — «Colors of the Wind»
Номинации (1):
• Лучший саундтрек
Скриншоты:



Покахонтас 2: Путешествие в Новый Свет / Pocahontas II: Journey to a New World (1998) BDRip
«The All-New Movie»

Русское название: Покахонтас 2: Путешествие в Новый Свет
Оригинальное название: Pocahontas II: Journey to a New World
Год выпуска: 1998
Производство: Walt Disney Pictures / США
Жанр: Мультфильм, приключения, семейный

Описание фильма:
Когда новость о смерти Джона Смита достигает Америки, дочь индейского вождя Покахонтас, вместе со своим другом, енотом Мико, отправляется в трудный путь в Лондон чтобы установить мир между двумя великими землями. Однако, правитель Рэтклифф неподалеку, он пытается захватить Джеймстаун и цена для него не имеет значения, ничто не остановит его в желании оклеветать принцессу…


Режиссер: Том Эллери, Брэдли Рэймонд
Продюсер: Лесли Хью, Джаннин Пассел, Джина Шэй
Актеры: Ирен Бедард, Джим Каммингс, Донал Гибсон, Финола Хьюз, Линда Хант, Рассел Минс, Дэвид Огден Стайерз, Джин Степлтон, Билли Зейн, Джефф Беннетт

Продолжительность: 01:13:09
Перевод: Дублированный
Субтитры: Вшитые, отключаемые
Язык субтитров: Русский, английский



Дата мировой премьеры: 4 августа 1998
Дата выхода DVD релиза: 27 марта 2012, «Уолт Дисней Компани СНГ»
Дата выхода Blu-Ray релиза: 27 марта 2012, «Уолт Дисней Компани СНГ»

Видеокодек: MPEG4_AVC/H.264
Качество видео: BDRip
Размер кадра: 1280x720
Битрейт видео: ~5300 kbps, Бит/(Пиксели*Кадры): 0.240
Аудио 1: AC3 5.1, 640 kbps [Русский]
Аудио 2: DTS 5.1, 1510 kbps [Английский]
Полное имя : D:\Покахонтас.2.Путешествие.в.Новый.Свет-Pocahontas.II.Journey.to.a.New.World.(1998).720p.BDRip.mkv
Формат : Matroska
Версия формата : Version 2
Размер файла : 3,81 Гбайт
Продолжительность : 1 ч. 13 м.
Общий поток : 7453 Кбит/сек
Дата кодирования : UTC 2012-03-21 05:41:37
Программа кодирования : mkvmerge v5.3.0 ('I could have danced') built on Feb 9 2012 10:38:07
Библиотека кодирования : libebml v1.2.3 + libmatroska v1.3.0

Видео
Идентификатор : 1
Формат : AVC
Формат/Информация : Advanced Video Codec
Профиль формата : High@L4.1
Параметр CABAC формата : Да
Параметр ReFrames формата : 9 кадров
Идентификатор кодека : V_MPEG4/ISO/AVC
Продолжительность : 1 ч. 13 м.
Битрейт : 5300 Кбит/сек
Ширина : 1280 пикс.
Высота : 720 пикс.
Соотношение сторон : 16:9
Частота кадров : 23,976 кадр/сек
Цветовое пространство : YUV
Подвыборка цветности : 4:2:0
Битовая глубина : 8 бит
Тип развёртки : Прогрессивная
Бит/(Пиксели*Кадры) : 0.240
Размер потока : 2,63 Гбайт (69%)
Библиотека кодирования : x264 core 120 r2164 da19765
Настройки программы : cabac=1 / ref=9 / deblock=1:-1:-1 / analyse=0x3:0x133 / me=umh / subme=11 / psy=1 / psy_rd=0.80:0.10 / mixed_ref=1 / me_range=32 / chroma_me=1 / trellis=2 / 8x8dct=1 / cqm=0 / deadzone=21,11 / fast_pskip=0 / chroma_qp_offset=-3 / threads=12 / sliced_threads=0 / nr=0 / decimate=1 / interlaced=0 / bluray_compat=0 / constrained_intra=0 / bframes=8 / b_pyramid=2 / b_adapt=2 / b_bias=0 / direct=3 / weightb=1 / open_gop=0 / weightp=2 / keyint=240 / keyint_min=22 / scenecut=40 / intra_refresh=0 / rc_lookahead=40 / rc=2pass / mbtree=1 / bitrate=5300 / ratetol=1.0 / qcomp=0.60 / qpmin=0 / qpmax=69 / qpstep=4 / cplxblur=20.0 / qblur=0.5 / vbv_maxrate=50000 / vbv_bufsize=62500 / nal_hrd=none / ip_ratio=1.40 / aq=2:1.00
Язык : English

Аудио #1
Идентификатор : 2
Формат : AC-3
Формат/Информация : Audio Coding 3
Расширение режима : CM (complete main)
Идентификатор кодека : A_AC3
Продолжительность : 1 ч. 13 м.
Вид битрейта : Постоянный
Битрейт : 640 Кбит/сек
Каналы : 6 каналов
Расположение каналов : Front: L C R, Side: L R, LFE
Частота : 48,0 КГц
Битовая глубина : 16 бит
Метод сжатия : С потерями
Размер потока : 335 Мбайт (9%)
Язык : Russian

Аудио #2
Идентификатор : 3
Формат : DTS
Формат/Информация : Digital Theater Systems
Идентификатор кодека : A_DTS
Продолжительность : 1 ч. 13 м.
Вид битрейта : Постоянный
Битрейт : 1510 Кбит/сек
Каналы : 6 каналов
Расположение каналов : Front: L C R, Side: L R, LFE
Частота : 48,0 КГц
Битовая глубина : 24 бит
Метод сжатия : С потерями
Размер потока : 790 Мбайт (20%)
Язык : English

Текст #1
Идентификатор : 4
Формат : UTF-8
Идентификатор кодека : S_TEXT/UTF8
Идентификатор кодека/Информация : UTF-8 Plain Text
Язык : Russian

Текст #2
Идентификатор : 5
Формат : UTF-8
Идентификатор кодека : S_TEXT/UTF8
Идентификатор кодека/Информация : UTF-8 Plain Text
Язык : English

Меню
00:00:00.000 : en:00:00:00.000
00:02:53.298 : en:00:02:53.298
00:05:57.107 : en:00:05:57.107
00:09:32.071 : en:00:09:32.071
00:12:31.668 : en:00:12:31.668
00:15:27.593 : en:00:15:27.593
00:17:40.518 : en:00:17:40.518
00:21:18.319 : en:00:21:18.319
00:25:42.124 : en:00:25:42.124
00:31:23.632 : en:00:31:23.632
00:33:28.173 : en:00:33:28.173
00:35:44.976 : en:00:35:44.976
00:40:57.580 : en:00:40:57.580
00:45:17.882 : en:00:45:17.882
00:47:53.788 : en:00:47:53.788
00:49:34.680 : en:00:49:34.680
00:51:09.525 : en:00:51:09.525
00:55:48.345 : en:00:55:48.345
00:58:09.319 : en:00:58:09.319
00:59:50.337 : en:00:59:50.337
01:03:31.349 : en:01:03:31.349
01:05:55.285 : en:01:05:55.285
01:07:35.134 : en:01:07:35.134
Скриншоты:


Время раздачи: 24/7 (до 10 скачавших)
[NNM-Club.ru]_Pokahontas-Pocahontas.(1995-1998).720p.BDRip.torrent
 Торрент: Платиновая раздача  Зарегистрирован
 
Скачать


Примагнититься
 Зарегистрирован:   22 Мар 2012 05:59:53
 Размер:   7.84 GB  (
 Рейтинг:   4.9 (Голосов: 99)
 Поблагодарили:   402
 Проверка:   Оформление проверено модератором 22 Мар 2012 07:26:37
Как cкачать  ·  Как раздать  ·  Правильно оформить  ·  Поднять ратио!  
Zov72
Стаж: 14 лет 5 мес.
Сообщений: 4743
Ratio: 110.504
Поблагодарили: 611451
100%
Откуда: Вольный кабан
wild_hogs.gif
Отличные мультфильмы, забираю, и ребенок будет рад, да и сам еще раз посмотрю с удовольствием.
Lelya_K спасибо большое, =)

_________________
Мне чужого не надо….Но свое я заберу, чье бы оно ни было!!!
трезорыч
Стаж: 12 лет
Сообщений: 2713
Ratio: 53.992
100%
Откуда: Из Интернета
russia.gif
Отличная дилогия смотрели вместе с дочкой очень понравились мульты !
Показать сообщения:   
Начать новую тему   Ответить на тему    Торрент-трекер NNM-Club -> Мультфильмы -> Зарубежные Мультфильмы (коллекции, сборники / *логии) Часовой пояс: GMT + 3
Страница 1 из 1