Классический форум-трекер
canvas not supported
Нас вместе: 4 232 306

Дикая орхидея / Wild Orchid (1989) HDTVRip [720p]


 
 
RSS
Начать новую тему   Ответить на тему    Торрент-трекер NNM-Club -> Классика кино и Старые фильмы до 90-х -> Старые Зарубежные Фильмы (HD, FHD, UHD, 3D)
Автор Сообщение
Николай Анатольевич ®
   
Почетный релизер
Стаж: 14 лет 3 мес.
Сообщений: 46540
Ratio: 9.97
Раздал: 8.745 TB
Поблагодарили: 2674201
100%
estonia.gif
Дикая орхидея / Wild Orchid (1989) HDTVRip [720p]
Русское название: Дикая орхидея
Оригинальное название: Wild Orchid
Год выпуска: 1989
Производство: США, Vision PDG
Жанр: Драма, мелодрама, эротика
Перевод: Профессиональный (дублированный), профессиональный (многоголосый, закадровый) , авторский (одноголосый закадровый)
Субтитры: Русские
Вид субтитров: Вшитые (отключаемые)

Режиссер: Залман Кинг
Актеры: Микки Рурк, Жаклин Биссет, Карре Отис[/color], Ассумпта Серна, Брюс Гринвуд, Милтон Гонсалвеш, Мишель Виллелла, Бернардо Яблонски, Лестер Берман, Пол Лэнд, Даниэль Анибал Бласко, Стивен Каминский, Олег Видов

Описание фильма:
Поступив на работу в юридическую фирму, Эмилия отправляется в Бразилию помочь завершить крупную сделку с недвижимостью. В Рио-де-Жанейро она встречается с Виллером — загадочным и очень сексуальным миллионером, который, используя свое колдовское очарование, пытается соблазнить невинную красотку.

Под сумасшедшие ритмы и краски карнавала, он распаляет в девушке вулкан неведомых ей ранее чувств и эротических фантазий, так и не решаясь на активные действия. Для него это привычная игра в любовь, но Эмилия не хочет и не может играть, она искренна, и это заставляет Виллера открыть ей свое сердце…

Продолжительность: 01:40:54
Качество видео: HDTVRip 720p

Видеокодек: MPEG4 AVC
Битрейт видео: 9600 Кбит/сек
Размер кадра: 1280x688
Аудио 1: Русский, AC3, 2 ch, 192 Кбит/сек |DUB, Советский дубляж|
Аудио 2: Русский, AC3, 2 ch, 192 Кбит/сек |MVO|
Аудио 3: Русский, AC3, 2 ch, 192 Кбит/сек |AVO, Гаврилов|
Аудио 4: Русский, AC3, 2 ch, 192 Кбит/сек |AVO, Горчаков|
Аудио 5: Русский, AC3, 2 ch, 192 Кбит/сек |AVO, Иванов|
Аудио 6: Английский, AC3, 2 ch, 384 Кбит/сек
    Эротическая мелодрама

    Вдобавок к прекрасным видам пляжей Рио-де-Жанейро, под звуки зажигательной самбы — сильные страсти, будоражащие эротические чувства зрителей… Даже если бы в этой ленте вновь не снялся Микки Рурк, её режиссёром не был бы сценарист популярной у нас (но не в Америке) картины «Девять с половиной недель», чей продюсер Марк Дэмон также поддержал и «Дикую орхидею», то всё равно сходство и родство двух фильмов напрашивалось бы само собой. Однако консервативные (более, чем мы думаем) американцы в очередной раз выразили своё неудовольствие, придравшись к слишком откровенным, по их мнению, интимным сценам. А авторы, как могли, защищались в печати, убеждая в красоте и романтичности эротических эпизодов.

    Корни неприятия, видимо, скрыты глубже — нелегко принять и одобрить историю разочарованного, презрительно относящегося к женщинам, уставшего от игр и ритуалов миллионера Джеймса Уилера, который одновременно хочет и не хочет, чтобы юная и неопытная Эмили оказалась такой же склонной к соблазну и разврату, как и все остальные. Но спровоцировав девушку на сексуальную связь с другими мужчинами, а сам выступая в качестве вуайериста, наблюдателя за чужими эротическими сценами, Джеймс с удивлением обнаруживает, что всё-таки по-настоящему влюбился в Эмили. Роль соблазнителя, игрока в сексуальное партнёрство, искателя острых и прихотливых ощущений, знакомая ещё по ленте «Девять с половиной недель», с одной стороны, становится более инфернальной, дьявольской, смущающей ум и сердца женщин-жертв, а с другой — приобретает действительно романтические черты. Одинокий «беспечный ездок» находит умиротворение в пламенной страсти к «дикой орхидее».

    Конечно, можно понять, в общем-то, закономерный успех этой картины у наших зрителей, алчущих сексуального самообразования и красивой, хоть и странной любви в далёком Рио-де-Жанейро, а ещё — в миг реализованной мечты, как бы в пику Остапу Бендеру! Привлекательна и эротична дебютировавшая в кино фотомодель, знойная брюнетка Карре Отис, которая потом стала женой Микки Рурка (между прочим, оба оказались номинантами «позорной» премии «Золотая малина», пусть и не получили её). Сам же актёр, к сожалению, не почувствовал, что его образ «бунтаря на мотоцикле» имеет здесь уже спекулятивно-кичевый характер, а из-за этого опошлены неизбежные культурные отсылки (ведь в начале своей кинобиографии Рурк сопоставлялся с Джеймсом Дином!). Судя по титрам, его дублёром в эпизодах проездов на мотоцикле был сводный брат Джои Рурк. Знаменательный факт! Джеймс Уилер из фильма «Дикая орхидея» — лишь и. о. героя, слабое отражение прежнего мифа об отщепенце 80-х годов.

    1990
Код:
Общее
Уникальный идентификатор                 : 174134381425580707726487497963949014183 (0x83010FDC2F0A6A12AE5404FE6F603CA7)
Полное имя                               : E:\Раздачи\Видео\Дикая орхидея [720p] (1989) HDTVRip.mkv
Формат                                   : Matroska
Версия формата                           : Version 2
Размер файла                             : 7,72 Гбайт
Продолжительность                        : 1 ч. 40 м.
Общий поток                              : 10,9 Мбит/сек
Дата кодирования                         : UTC 2011-01-31 13:45:59
Программа кодирования                    : mkvmerge v4.4.0 ('Die Wiederkehr') сборка от Oct 31 2010 21:52:48
Библиотека кодирования                   : libebml v1.0.0 + libmatroska v1.0.0

Видео
Идентификатор                            : 1
Формат                                   : AVC
Формат/Информация                        : Advanced Video Codec
Профиль формата                          : High@L4.1
Параметр CABAC формата                   : Да
Параметр ReFrames формата                : 9 кадров
Идентификатор кодека                     : V_MPEG4/ISO/AVC
Продолжительность                        : 1 ч. 40 м.
Битрейт                                  : 9600 Кбит/сек
Ширина                                   : 1280 пикселей
Высота                                   : 688 пикселей
Соотношение сторон                       : 1,85:1
Частота кадров                           : 25,000 кадров/сек
Цветовое пространство                    : YUV
Субдискретизация насыщенности            : 4:2:0
Битовая глубина                          : 8 бит
Тип развёртки                            : Прогрессивная
Бит/(Пиксели*Кадры)                      : 0.436
Размер потока                            : 6,62 Гбайт (86%)
Библиотека кодирования                   : x264 core 112 r1867 22bfd31
Настройки программы                      : cabac=1 / ref=9 / deblock=1:-2:-2 / analyse=0x3:0x113 / me=umh / subme=10 / psy=1 / psy_rd=1.00:0.00 / mixed_ref=1 / me_range=24 / chroma_me=1 / trellis=2 / 8x8dct=1 / cqm=0 / deadzone=21,11 / fast_pskip=1 / chroma_qp_offset=-2 / threads=3 / sliced_threads=0 / nr=0 / decimate=1 / interlaced=0 / constrained_intra=0 / bframes=8 / b_pyramid=2 / b_adapt=2 / b_bias=0 / direct=1 / weightb=1 / open_gop=0 / weightp=2 / keyint=250 / keyint_min=25 / scenecut=40 / intra_refresh=0 / rc_lookahead=40 / rc=2pass / mbtree=1 / bitrate=9600 / ratetol=1.0 / qcomp=0.70 / qpmin=10 / qpmax=51 / qpstep=4 / cplxblur=20.0 / qblur=0.5 / vbv_maxrate=50000 / vbv_bufsize=50000 / nal_hrd=none / ip_ratio=1.40 / aq=1:1.00
Язык                                     : English
Default                                  : Да
Forced                                   : Нет

Аудио #1
Идентификатор                            : 2
Формат                                   : AC-3
Формат/Информация                        : Audio Coding 3
Расширение режима                        : CM (complete main)
Параметр Endianness формата              : Big
Идентификатор кодека                     : A_AC3
Продолжительность                        : 1 ч. 40 м.
Вид битрейта                             : Постоянный
Битрейт                                  : 192 Кбит/сек
Каналы                                   : 2 канала
Расположение каналов                     : Front: L R
Частота                                  : 48,0 КГц
Битовая глубина                          : 16 бит
Метод сжатия                             : С потерями
Размер потока                            : 139 Мбайт (2%)
Заголовок                                : Dub
Язык                                     : Russian
Default                                  : Да
Forced                                   : Нет

Аудио #2
Идентификатор                            : 3
Формат                                   : AC-3
Формат/Информация                        : Audio Coding 3
Расширение режима                        : CM (complete main)
Параметр Endianness формата              : Big
Идентификатор кодека                     : A_AC3
Продолжительность                        : 1 ч. 40 м.
Вид битрейта                             : Постоянный
Битрейт                                  : 192 Кбит/сек
Каналы                                   : 2 канала
Расположение каналов                     : Front: L R
Частота                                  : 48,0 КГц
Битовая глубина                          : 16 бит
Метод сжатия                             : С потерями
Размер потока                            : 139 Мбайт (2%)
Заголовок                                : MVO
Язык                                     : Russian
Default                                  : Нет
Forced                                   : Нет

Аудио #3
Идентификатор                            : 4
Формат                                   : AC-3
Формат/Информация                        : Audio Coding 3
Расширение режима                        : CM (complete main)
Параметр Endianness формата              : Big
Идентификатор кодека                     : A_AC3
Продолжительность                        : 1 ч. 40 м.
Вид битрейта                             : Постоянный
Битрейт                                  : 192 Кбит/сек
Каналы                                   : 2 канала
Расположение каналов                     : Front: L R
Частота                                  : 48,0 КГц
Битовая глубина                          : 16 бит
Метод сжатия                             : С потерями
Размер потока                            : 139 Мбайт (2%)
Заголовок                                : Gavrilov
Язык                                     : Russian
Default                                  : Нет
Forced                                   : Нет

Аудио #4
Идентификатор                            : 5
Формат                                   : AC-3
Формат/Информация                        : Audio Coding 3
Расширение режима                        : CM (complete main)
Параметр Endianness формата              : Big
Идентификатор кодека                     : A_AC3
Продолжительность                        : 1 ч. 40 м.
Вид битрейта                             : Постоянный
Битрейт                                  : 192 Кбит/сек
Каналы                                   : 2 канала
Расположение каналов                     : Front: L R
Частота                                  : 48,0 КГц
Битовая глубина                          : 16 бит
Метод сжатия                             : С потерями
Размер потока                            : 139 Мбайт (2%)
Заголовок                                : Gorchakov
Язык                                     : Russian
Default                                  : Нет
Forced                                   : Нет

Аудио #5
Идентификатор                            : 6
Формат                                   : AC-3
Формат/Информация                        : Audio Coding 3
Расширение режима                        : CM (complete main)
Параметр Endianness формата              : Big
Идентификатор кодека                     : A_AC3
Продолжительность                        : 1 ч. 40 м.
Вид битрейта                             : Постоянный
Битрейт                                  : 192 Кбит/сек
Каналы                                   : 2 канала
Расположение каналов                     : Front: L R
Частота                                  : 48,0 КГц
Битовая глубина                          : 16 бит
Метод сжатия                             : С потерями
Размер потока                            : 139 Мбайт (2%)
Заголовок                                : Ivanov
Язык                                     : Russian
Default                                  : Нет
Forced                                   : Нет

Аудио #6
Идентификатор                            : 7
Формат                                   : AC-3
Формат/Информация                        : Audio Coding 3
Профиль формата                          : Dolby Digital
Расширение режима                        : CM (complete main)
Параметр Endianness формата              : Big
Идентификатор кодека                     : A_AC3
Продолжительность                        : 1 ч. 40 м.
Вид битрейта                             : Постоянный
Битрейт                                  : 384 Кбит/сек
Каналы                                   : 2 канала
Расположение каналов                     : Front: L R
Частота                                  : 48,0 КГц
Битовая глубина                          : 16 бит
Метод сжатия                             : С потерями
Размер потока                            : 277 Мбайт (4%)
Язык                                     : English
Default                                  : Нет
Forced                                   : Нет

Текст
Идентификатор                            : 8
Формат                                   : UTF-8
Идентификатор кодека                     : S_TEXT/UTF8
Идентификатор кодека/Информация          : UTF-8 Plain Text
Язык                                     : Russian
Default                                  : Да
Forced                                   : Нет
Скриншоты:


Время раздачи: 9.00 - 23.00 (по мере возможности...)
[NNM-Club.ru]_Dikaya orhideya [720p] (1989) HDTVRip.mkv.torrent
 Торрент: Платиновая раздача  Зарегистрирован
 
Скачать


 Зарегистрирован:   02 Мар 2013 11:11:20
 Размер:   7.72 GB  (
 Рейтинг:   4.4 (Голосов: 40)
 Поблагодарили:   152
 Проверка:   Оформление проверено модератором 02 Мар 2013 14:20:33
Как cкачать  ·  Как раздать  ·  Правильно оформить  ·  Поднять ратио!  
Николай Анатольевич ®
   
Почетный релизер
Стаж: 14 лет 3 мес.
Сообщений: 46540
Ratio: 9.97
Раздал: 8.745 TB
Поблагодарили: 2674201
100%
estonia.gif
Дикая орхидея / Wild Orchid [H.264] (1989) DVDRip
ElektrAа
Uploader 500+
Стаж: 13 лет 2 мес.
Сообщений: 2788
Ratio: 3824.34
Раздал: 508.5 TB
Поблагодарили: 394462
100%
Откуда: Южная столица
ukraine.gif
Спасибо!!!! Вспомним молодые годы! =)
Показать сообщения:   
Начать новую тему   Ответить на тему    Торрент-трекер NNM-Club -> Классика кино и Старые фильмы до 90-х -> Старые Зарубежные Фильмы (HD, FHD, UHD, 3D) Часовой пояс: GMT + 3
Страница 1 из 1