Классический форум-трекер
canvas not supported
Нас вместе: 4 235 091

Семь самураев / Shichinin no samurai / Seven Samurai (1954) BDRip [576p] iPad


 
 
RSS
Начать новую тему   Ответить на тему    Торрент-трекер NNM-Club -> Аудио и Видео -> Зарубежное видео для устройств Apple
Автор Сообщение
shax87 ®
Стаж: 13 лет 3 мес.
Сообщений: 215
Ratio: 446.069
Раздал: 25.16 TB
Поблагодарили: 18023
100%
Откуда: Санкт-Петербург
russia.gif
Семь самураев / Shichinin no samurai / Seven Samurai (1954) BDRip [576p] iPad
Производство: Япония
Жанр: драма, приключения

Режиссер: Акира Куросава
Сценарий: Акира Куросава, Синобу Хасимото, Хидэо Огуни
Актеры: Тосиро Мифунэ, Такаси Симура, Кэйко Цусима, Юкико Шимазаки, Каматари Фудзивара, Дайскэ Като, Исао Кимура, Минору Чиаки, Сэйдзи Миягути, Ёсио Косуги

Описание: Япония. 16 век. В стране полыхает гражданская война, повсюду орудуют банды разбойников и мародеров. Бедные крестьяне нанимают для своей защиты семерых самураев, которые немного сплачивают раздробленных и малодушных жителей деревни в этой борьбе…
Куросава показывает яркие, выразительные и такие достоверные персонажи, что, кажется, всему происходящему зритель был свидетелем сам.
Несмотря на реалистичность и беспощадность в подаче материала, картина пронизана высокой поэтикой и лиризмом, жизнеутверждающим пониманием и человечностью. Этот фильм стал в буквальном смысле культовым для кинематографистов всего мира.



Качество видео: BDRip (Исходник - BDRemux)
Продолжительность: 03:26:58
Перевод: Профессиональный многоголосый
Оригинальная аудиодорожка: японская
Субтитры: нет
Навигация по главам: нет

Видео: AVC, 768x576 (4:3), 2773 kbps, 0.261 bit/pixel
Аудио: 48 kHz, AAC, 1ch, 152 Kbps | Russian | Многоголосый, закадровый ("Светла")
Аудио: 48 kHz, AAC, 1ch, 154 Kbps | Russian | Многоголосый, закадровый
Аудио: 48 kHz, AAC, 2ch, 160 Kbps | Russian | Одноголосый (Живов)
Аудио: 48 kHz, AAC, 2ch, 160 Kbps | Japanese | Original
Общее
Полное имя : F:\Downloads\Shichinin no samurai.1954.BDRip.iPad.m4v
Формат : MPEG-4
Идентификатор кодека : M4V
Размер файла : 4,94 Гбайт
Продолжительность : 3 ч. 26 м.
Режим общего битрейта : Переменный
Общий поток : 3420 Кбит/сек
Название фильма : Семь самураев / Shichinin no samurai
Исполнитель : Акира Куросава
Жанр : драма, приключения
Дата записи : UTC 1954-04-26 07:00:00
Дата кодирования : UTC 2013-03-25 18:21:20
Дата пометки : UTC 2013-03-26 16:53:48
Программа кодирования : MkvToMp4 [www.mkvtomp4.ru] version 0.222

Видео
Идентификатор : 1
Формат : AVC
Формат/Информация : Advanced Video Codec
Профиль формата : High@L3.1
Параметр CABAC формата : Да
Параметр ReFrames формата : 8 кадров
Идентификатор кодека : avc1
Идентификатор кодека/Информация : Advanced Video Coding
Продолжительность : 3 ч. 26 м.
Битрейт : 2773 Кбит/сек
Максимальный битрейт : 11,8 Мбит/сек
Ширина : 768 пикселей
Высота : 576 пикселей
Соотношение сторон : 4:3
Режим частоты кадров : Переменный
Частота кадров : 23,976 кадра/сек
Минимальная частота кадров : 23,969 кадра/сек
Максимальная частота кадров : 23,992 кадра/сек
Цветовое пространство : YUV
Субдискретизация насыщенности : 4:2:0
Битовая глубина : 8 бит
Тип развёртки : Прогрессивная
Бит/(Пиксели*Кадры) : 0.261
Размер потока : 4,01 Гбайт (81%)
Библиотека кодирования : x264 core 120
Настройки программы : cabac=1 / ref=9 / deblock=1:-1:-1 / analyse=0x3:0x133 / me=umh / subme=9 / psy=1 / psy_rd=1.00:0.15 / mixed_ref=1 / me_range=32 / chroma_me=1 / trellis=2 / 8x8dct=1 / cqm=0 / deadzone=21,11 / fast_pskip=1 / chroma_qp_offset=-3 / threads=6 / sliced_threads=0 / nr=0 / decimate=1 / interlaced=0 / bluray_compat=0 / constrained_intra=0 / bframes=9 / b_pyramid=1 / b_adapt=2 / b_bias=0 / direct=1 / weightb=1 / open_gop=0 / weightp=2 / keyint=240 / keyint_min=24 / scenecut=40 / intra_refresh=0 / rc_lookahead=40 / rc=crf / mbtree=1 / crf=18.0 / qcomp=0.60 / qpmin=3 / qpmax=69 / qpstep=4 / ip_ratio=1.40 / aq=1:0.90
Язык : English
Дата кодирования : UTC 2013-03-25 18:21:20
Дата пометки : UTC 2013-03-25 18:24:28
Основные цвета : BT.709
Характеристики трансфера : BT.709
Коэффициенты матрицы : BT.709

Аудио #1
Идентификатор : 2
Формат : AAC
Формат/Информация : Advanced Audio Codec
Профиль формата : LC
Идентификатор кодека : 40
Продолжительность : 3 ч. 26 м.
Вид битрейта : Переменный
Битрейт : 152 Кбит/сек
Максимальный битрейт : 185 Кбит/сек
Каналы : 1 канал
Расположение каналов : Front: C
Частота : 48,0 КГц
Метод сжатия : С потерями
Размер потока : 225 Мбайт (4%)
Язык : Russian
Дата кодирования : UTC 2013-03-25 18:23:19
Дата пометки : UTC 2013-03-25 18:24:28

Аудио #2
Идентификатор : 3
Формат : AAC
Формат/Информация : Advanced Audio Codec
Профиль формата : LC
Идентификатор кодека : 40
Продолжительность : 3 ч. 26 м.
Вид битрейта : Переменный
Битрейт : 154 Кбит/сек
Максимальный битрейт : 202 Кбит/сек
Каналы : 1 канал
Расположение каналов : Front: C
Частота : 48,0 КГц
Метод сжатия : С потерями
Размер потока : 228 Мбайт (4%)
Язык : Russian
Дата кодирования : UTC 2013-03-25 18:23:47
Дата пометки : UTC 2013-03-25 18:24:28

Аудио #3
Идентификатор : 4
Формат : AAC
Формат/Информация : Advanced Audio Codec
Профиль формата : LC
Идентификатор кодека : 40
Продолжительность : 3 ч. 26 м.
Вид битрейта : Переменный
Битрейт : 160 Кбит/сек
Максимальный битрейт : 223 Кбит/сек
Каналы : 2 канала
Расположение каналов : Front: L R
Частота : 48,0 КГц
Метод сжатия : С потерями
Размер потока : 237 Мбайт (5%)
Язык : Russian
Дата кодирования : UTC 2013-03-25 18:24:02
Дата пометки : UTC 2013-03-25 18:24:28

Аудио #4
Идентификатор : 5
Формат : AAC
Формат/Информация : Advanced Audio Codec
Профиль формата : LC
Идентификатор кодека : 40
Продолжительность : 3 ч. 26 м.
Вид битрейта : Переменный
Битрейт : 160 Кбит/сек
Максимальный битрейт : 319 Кбит/сек
Каналы : 2 канала
Расположение каналов : Front: L R
Частота : 48,0 КГц
Метод сжатия : С потерями
Размер потока : 237 Мбайт (5%)
Язык : Japanese
Дата кодирования : UTC 2013-03-25 18:24:18
Дата пометки : UTC 2013-03-25 18:24:28
x264 [info]: frame I:1742 Avg QP:15.47 size: 75964
x264 [info]: frame P:61388 Avg QP:18.85 size: 29299
x264 [info]: frame B:234624 Avg QP:22.59 size: 10119
x264 [info]: consecutive B-frames: 1.3% 2.0% 5.7% 25.2% 18.3% 26.3% 8.2% 5.9% 3.6% 3.4%
x264 [info]: mb I I16..4: 5.8% 68.0% 26.2%
x264 [info]: mb P I16..4: 0.7% 14.0% 3.1% P16..4: 35.0% 21.3% 16.5% 3.2% 1.1% skip: 5.1%
x264 [info]: mb B I16..4: 0.0% 2.1% 0.5% B16..8: 39.9% 15.1% 4.3% direct:11.2% skip:26.8% L0:42.1% L1:39.3% BI:18.6%
x264 [info]: 8x8 transform intra:78.4% inter:62.2%
x264 [info]: coded y,uvDC,uvAC intra: 94.5% 0.0% 0.0% inter: 41.3% 0.0% 0.0%
x264 [info]: i16 v,h,dc,p: 37% 21% 18% 25%
x264 [info]: i8 v,h,dc,ddl,ddr,vr,hd,vl,hu: 11% 8% 5% 9% 14% 14% 13% 13% 12%
x264 [info]: i4 v,h,dc,ddl,ddr,vr,hd,vl,hu: 10% 7% 3% 9% 16% 17% 13% 13% 13%
x264 [info]: i8c dc,h,v,p: 100% 0% 0% 0%
x264 [info]: Weighted P-Frames: Y:43.6% UV:0.0%
x264 [info]: ref P L0: 45.6% 16.3% 13.3% 7.6% 5.7% 4.4% 3.6% 2.4% 1.1% 0.0%
x264 [info]: ref B L0: 77.1% 9.5% 5.4% 2.9% 2.2% 1.8% 1.0%
x264 [info]: ref B L1: 91.8% 8.2%
x264 [info]: kb/s:2773.31
Скриншоты:

Время раздачи: 24/7
[NNM-Club.ru]_Shichinin no samurai.1954.BDRip.iPad.m4v.torrent
 Торрент: Платиновая раздача  Зарегистрирован
 
Скачать


 Зарегистрирован:   26 Мар 2013 22:45:41
 Размер:   4.94 GB  (
 Рейтинг:   4.9 (Голосов: 37)
 Поблагодарили:   115
 Проверка:   Оформление проверено модератором 26 Мар 2013 22:58:13
Как cкачать  ·  Как раздать  ·  Правильно оформить  ·  Поднять ратио!  
caifrat
Стаж: 12 лет 5 мес.
Сообщений: 69
Ratio: 63.959
Раздал: 3.886 TB
Поблагодарили: 1017
100%
Благодарю.
rollers76
Стаж: 12 лет 6 мес.
Сообщений: 109
Ratio: 11.162
100%
belarus.gif
Супер фильм.
Показать сообщения:   
Начать новую тему   Ответить на тему    Торрент-трекер NNM-Club -> Аудио и Видео -> Зарубежное видео для устройств Apple Часовой пояс: GMT + 3
Страница 1 из 1