Классический форум-трекер
canvas not supported
Нас вместе: 4 235 046

Воздушный маршал / Non-Stop (2014) BDRip [720p]


 
 
RSS
Начать новую тему   Ответить на тему    Торрент-трекер NNM-Club -> Архив торрентов -> Архив Видео. Кино, Театра
Автор Сообщение
andr1525 ®
Покровитель талантов
Стаж: 13 лет 8 мес.
Сообщений: 2126
Ratio: 5.476
Поблагодарили: 171949
100%
russia.gif
Воздушный маршал / Non-Stop (2014) BDRip
«Захват самолёта - это только начало»

Год выпуска: 2014
Производство: Великобритания, Франция, США / Studio Canal
Жанр: Детектив, Триллер, Боевик, ...

Описание фильма:
Межконтинентальный авиарейс. Билл Маркс, воздушный маршал, который обеспечивает безопасность пассажиров, получает сообщения с угрозами от маньяка-террориста. Преступник просчитал все ходы и подставил под обвинение самого спецагента. Теперь Маркс — цель спецслужб США. Ему остается одно: вычислить и обезвредить преступника, спасти пассажиров и свою любовь, которую он обретает на краю гибели. До взрыва остаются считанные минуты…

Режиссер: Хауме Кольет-Серра / Jaume Collet-Serra
Продюсер: Алекс Хейнеман, Эндрю Рона, Джоэл Силвер
Актеры: Лиам Нисон, Джулианна Мур, Скут МакНэйри, Мишель Докери, Нэйт Паркер, Кори Столл, Лупита Нионго, Омар Метуолли, Джейсон Батлер Харнер, Лайнас Роуч

Перевод: Профессиональный (полное дублирование) [Мосфильм мастер]
Вид субтитров: Вшитые отключаемые
Язык субтитров: Русский (SMS), Английский (Full, SDH)



Дата мировой премьеры: 27 января 2014, ...
Дата российской премьеры: 12 марта 2014, «Парадиз», ...
Дата выхода DVD релиза: 1 июля 2014, «Парадиз / Активижен», ...
Дата выхода Blu-Ray релиза: 1 июля 2014, «Парадиз / Активижен», ...

Рейтинг PG-13 - Детям до 13 лет просмотр не желателен

Продолжительность: 01:46:37
Качество видео: BDRip [profile-LQ]

Видеокодек: MPEG-4 AVC/H.264
Битрейт видео: ~4358 Кбит/сек
Размер кадра: 1280 x 536
Аудио 1: 48,0 КГц, AC3, 3/2 (L,C,R,l,r) + LFE ch, 448 Кбит/сек - Русский |Дубляж, Мосфильм мастер|
Аудио 2: 48,0 КГц, DTS, 3/2 (L,C,R,l,r) + LFE ch, 1510 Кбит/сек - Английский |Оригинал|
Общее
Уникальный идентификатор : 242781032939784528976566524492130274529 (0xB6A5ED16A55BC187ADA2771D853BCCE1)
Полное имя : E:\Воздушный маршал.2014.BDRip.720p.mkv
Формат : Matroska
Версия формата : Version 4 / Version 2
Размер файла : 4,70 Гбайт
Продолжительность : 1 ч. 46 м.
Общий поток : 6316 Кбит/сек
Дата кодирования : UTC 2014-05-30 13:32:30
Программа кодирования : mkvmerge v6.6.0 ('The Edge Of The In Between') built on Dec 1 2013 17:55:00
Библиотека кодирования : libebml v1.3.0 + libmatroska v1.4.1

Видео
Идентификатор : 1
Формат : AVC
Формат/Информация : Advanced Video Codec
Профиль формата : High@L4.1
Параметр CABAC формата : Да
Параметр ReFrames формата : 5 кадров
Идентификатор кодека : V_MPEG4/ISO/AVC
Продолжительность : 1 ч. 46 м.
Битрейт : 4358 Кбит/сек
Ширина : 1280 пикселей
Высота : 536 пикселей
Соотношение сторон : 2,40:1
Режим частоты кадров : Постоянный
Частота кадров : 23,976 кадра/сек
Цветовое пространство : YUV
Субдискретизация насыщенности : 4:2:0
Битовая глубина : 8 бит
Тип развёртки : Прогрессивная
Бит/(Пиксели*Кадры) : 0.265
Размер потока : 3,15 Гбайт (67%)
Библиотека кодирования : x264 core 142 r2431 ac76440
Настройки программы : cabac=1 / ref=5 / deblock=1:-3:-3 / analyse=0x3:0x113 / me=umh / subme=8 / psy=1 / psy_rd=1.00:0.00 / mixed_ref=1 / me_range=16 / chroma_me=1 / trellis=1 / 8x8dct=1 / cqm=0 / deadzone=21,11 / fast_pskip=1 / chroma_qp_offset=-2 / threads=12 / lookahead_threads=2 / sliced_threads=0 / nr=0 / decimate=1 / interlaced=0 / bluray_compat=0 / constrained_intra=0 / bframes=3 / b_pyramid=2 / b_adapt=2 / b_bias=0 / direct=3 / weightb=1 / open_gop=0 / weightp=2 / keyint=240 / keyint_min=24 / scenecut=40 / intra_refresh=0 / rc_lookahead=50 / rc=2pass / mbtree=1 / bitrate=4358 / ratetol=1.0 / qcomp=0.60 / qpmin=0 / qpmax=69 / qpstep=4 / cplxblur=20.0 / qblur=0.5 / ip_ratio=1.40 / aq=1:1.00
Язык : English
Default : Да
Forced : Нет

Аудио #1
Идентификатор : 2
Формат : AC-3
Формат/Информация : Audio Coding 3
Расширение режима : CM (complete main)
Параметр Endianness формата : Big
Идентификатор кодека : A_AC3
Продолжительность : 1 ч. 46 м.
Вид битрейта : Постоянный
Битрейт : 448 Кбит/сек
Каналы : 6 каналов
Расположение каналов : Front: L C R, Side: L R, LFE
Частота : 48,0 КГц
Битовая глубина : 16 бит
Метод сжатия : С потерями
Размер потока : 342 Мбайт (7%)
Язык : Russian
Default : Да
Forced : Нет

Аудио #2
Идентификатор : 3
Формат : DTS
Формат/Информация : Digital Theater Systems
Режим : 16
Параметр Endianness формата : Big
Идентификатор кодека : A_DTS
Продолжительность : 1 ч. 46 м.
Вид битрейта : Постоянный
Битрейт : 1509 Кбит/сек
Каналы : 6 каналов
Расположение каналов : Front: L C R, Side: L R, LFE
Частота : 48,0 КГц
Битовая глубина : 24 бит
Метод сжатия : С потерями
Размер потока : 1,12 Гбайт (24%)
Язык : English
Default : Нет
Forced : Нет

Текст #1
Идентификатор : 4
Формат : UTF-8
Идентификатор кодека : S_TEXT/UTF8
Идентификатор кодека/Информация : UTF-8 Plain Text
Язык : Russian
Default : Да
Forced : Нет

Текст #2
Идентификатор : 5
Формат : UTF-8
Идентификатор кодека : S_TEXT/UTF8
Идентификатор кодека/Информация : UTF-8 Plain Text
Заголовок : SDH
Язык : English
Default : Нет
Forced : Нет

Текст #3
Идентификатор : 6
Формат : UTF-8
Идентификатор кодека : S_TEXT/UTF8
Идентификатор кодека/Информация : UTF-8 Plain Text
Язык : English
Default : Нет
Forced : Нет
Во время выпуска новостей репортер говорит, что Маркс родился не в Америке, а в Северной Ирландии. Исполняющий роль Маркса Лиам Нисон родился в Северной Ирландии.
Часы, которые носит герой Лиама Нисона, — это Casio WV58A-1AV Wave Ceptor.
Около 200 человек массовки принимали участие в съемках.
Самолет в фильме — это Boeing 767-300.
Когда самолет выравнивается после резкого снижения до 8000 футов, в салоне самолета невесомость. Такой эффект возможен только в том случае, когда самолет начинает резко терять высоту после быстрого подъема.
В начале фильма, когда Билл заходит в кабину самолета, можно заметить рычаги от четырех двигателей. Однако, когда самолет показывают снаружи, видно, что двигателей всего два.
Когда Билл курит в ванной в первый раз, можно заметить, что он курит сигареты несуществующей марки. Когда позже в фильме он опять курит, видно, что это Marlboro.
Билл говорит, что подозреваемый, который совершал звонки, будет отправлен в федеральную тюрьму по прибытии в Лондон. В Великобритании нет федеральных правоохранительных органов. Его бы встретили столичная полиция и служба пограничного контроля Великобритании.
В начале фильма Джен и Билл заказывают напитки, сидя в самолете. Стюардесса приносит джин с тоником и воду и ставит их в подстаканники. В следующем кадре напитков уже нет.
Федеральные агенты не проходят через ту же процедуру досмотра в аэропорту, что и гражданские, как это показывается в фильме.
Во всех сценах у истребителей включен форсаж. Ни одному истребителю нет необходимости включать форсаж, чтобы лететь со скоростью 0,8 Маха рядом с коммерческим авиалайнером. Также в сцене буксировки самолета включен фонарь у носового колеса, который бы просто ослепил водителя буксира.
В воздушном пространстве Исландии самолет не сопровождался бы истребителями Eurofighter Typhoon. Эти истребители были заменены на американские F-15s.
Когда самолет находится на высоте 8000 футов, Билл (причем вопреки законам физики) пролетает через салон самолета, хватая пистолет и стреляя в процессе полета, однако его цель при этом остается совершенно неподвижной.
Скриншоты:


Время раздачи: С 10.00 до 23.00
[NNM-Club.me]_Vozdushnyiy marshal.2014.BDRip.720p.mkv.torrent
 Торрент: Платиновая раздача  Зарегистрирован
 
Скачать


Примагнититься
 Зарегистрирован:   30 Май 2014 16:49:30
 Размер:   4.7 GB  (
 Рейтинг:   4.8 (Голосов: 78)
 Поблагодарили:   370
 Проверка:   Оформление проверено модератором 30 Май 2014 18:53:44
Как cкачать  ·  Как раздать  ·  Правильно оформить  ·  Поднять ратио!  
Maksim_Zar
Стаж: 11 лет 9 мес.
Сообщений: 231
Ratio: 2.109
68.78%
Фильм понравился
lolik2707
Стаж: 10 лет 6 мес.
Сообщений: 119
Ratio: 158.99
Поблагодарили: 682
100%
ukraine.gif
спасибо, хороший фильм и Лиам Нисон как всегда на высоте, фильмы с его участием всегда зачетные
sasha037
Стаж: 12 лет 9 мес.
Сообщений: 38
Ratio: 3.828
100%
russia.gif
lolik2707 писал(а): Перейти к сообщению
спасибо, хороший фильм и Лиам Нисон как всегда на высоте, фильмы с его участием всегда зачетные


уж точно в х ерне не снимается

фильм зачёт - на уровне "заложница"
я заметил в дубляже за ним голос закрепили ! уже который фильм - а голос и интонция всё теЖе - маладцы
Топик был перенесен из форума Новинки (HD) в форум Архив Видео

Причина переноса: http://nnmclub.to/forum/viewtopic.php?t=797826
MAG3131
Показать сообщения:   
Начать новую тему   Ответить на тему    Торрент-трекер NNM-Club -> Архив торрентов -> Архив Видео. Кино, Театра Часовой пояс: GMT + 3
Страница 1 из 1