Классический форум-трекер
canvas not supported
Нас вместе: 4 235 069

Воздушный маршал / Non-Stop (2014) HDRip [H.264]


Страницы:  1, 2  След. 
 
RSS
Начать новую тему   Ответить на тему    Торрент-трекер NNM-Club -> Зарубежное кино -> Зарубежные Фильмы (SD)
Автор Сообщение
andr1525 ®
Покровитель талантов
Стаж: 13 лет 8 мес.
Сообщений: 2126
Ratio: 5.476
Поблагодарили: 171949
100%
russia.gif
Воздушный маршал / Non-Stop (2014) HDRip
«Захват самолёта - это только начало»

Год выпуска: 2014
Производство: Великобритания, Франция, США / Studio Canal
Жанр: Детектив, Триллер, Боевик, ...

Режиссер: Хауме Кольет-Серра / Jaume Collet-Serra
Продюсер: Алекс Хейнеман, Эндрю Рона, Джоэл Силвер
Актеры: Лиам Нисон, Джулианна Мур, Скут МакНэйри, Мишель Докери, Нэйт Паркер, Кори Столл, Лупита Нионго, Омар Метуолли, Джейсон Батлер Харнер, Лайнас Роуч

Описание фильма:
Межконтинентальный авиарейс. Билл Маркс, воздушный маршал, который обеспечивает безопасность пассажиров, получает сообщения с угрозами от маньяка-террориста. Преступник просчитал все ходы и подставил под обвинение самого спецагента. Теперь Маркс — цель спецслужб США. Ему остается одно: вычислить и обезвредить преступника, спасти пассажиров и свою любовь, которую он обретает на краю гибели. До взрыва остаются считанные минуты…

Перевод: Профессиональный (полное дублирование) [Мосфильм мастер]
Вид субтитров: Вшитые отключаемые
Язык субтитров: Русский (SMS)



Дата мировой премьеры: 27 января 2014, ...
Дата российской премьеры: 12 марта 2014, «Парадиз», ...
Дата выхода DVD релиза: 1 июля 2014, «Парадиз / Активижен», ...
Дата выхода Blu-Ray релиза: 1 июля 2014, «Парадиз / Активижен», ...

Рейтинг PG-13 - Детям до 13 лет просмотр не желателен

Продолжительность: 01:46:37
Качество видео: HDRip

Видеокодек: MPEG-4 AVC/H.264
Битрейт видео: ~ 2500 Кбит/сек
Размер кадра: 1024 x 426
Аудио:48,0 КГц, AC3, 3/2 (L,C,R,l,r) + LFE ch, 448 Кбит/сек - Русский |Дубляж, Мосфильм мастер|
Общее
Уникальный идентификатор : 195838620998632528848609551312678387505 (0x9355257D695515669CE1623B05D17F31)
Полное имя : E:\NonStop.2014.HDRip.x264.mkv
Формат : Matroska
Версия формата : Version 4 / Version 2
Размер файла : 2,20 Гбайт
Продолжительность : 1 ч. 46 м.
Общий поток : 2949 Кбит/сек
Дата кодирования : UTC 2014-05-30 12:31:31
Программа кодирования : mkvmerge v6.1.0 ('Old Devil') built on Mar 2 2013 14:32:37
Библиотека кодирования : libebml v1.3.0 + libmatroska v1.4.0

Видео
Идентификатор : 1
Формат : AVC
Формат/Информация : Advanced Video Codec
Профиль формата : High@L4.1
Параметр CABAC формата : Да
Параметр ReFrames формата : 10 кадров
Идентификатор кодека : V_MPEG4/ISO/AVC
Продолжительность : 1 ч. 46 м.
Битрейт : 2500 Кбит/сек
Ширина : 1024 пикселя
Высота : 426 пикселей
Соотношение сторон : 2,40:1
Режим частоты кадров : Постоянный
Частота кадров : 23,976 кадра/сек
Цветовое пространство : YUV
Субдискретизация насыщенности : 4:2:0
Битовая глубина : 8 бит
Тип развёртки : Прогрессивная
Бит/(Пиксели*Кадры) : 0.239
Размер потока : 1,82 Гбайт (83%)
Библиотека кодирования : x264 core 130 r2273 b3065e6
Настройки программы : cabac=1 / ref=10 / deblock=1:-2:-2 / analyse=0x3:0x133 / me=umh / subme=11 / psy=1 / psy_rd=1.00:0.10 / mixed_ref=1 / me_range=32 / chroma_me=1 / trellis=2 / 8x8dct=1 / cqm=0 / deadzone=21,11 / fast_pskip=0 / chroma_qp_offset=-3 / threads=6 / lookahead_threads=1 / sliced_threads=0 / nr=0 / decimate=1 / interlaced=0 / bluray_compat=0 / constrained_intra=0 / bframes=3 / b_pyramid=2 / b_adapt=2 / b_bias=0 / direct=3 / weightb=1 / open_gop=0 / weightp=2 / keyint=240 / keyint_min=23 / scenecut=40 / intra_refresh=0 / rc_lookahead=50 / rc=2pass / mbtree=1 / bitrate=2500 / ratetol=1.0 / qcomp=0.60 / qpmin=0 / qpmax=69 / qpstep=4 / cplxblur=20.0 / qblur=0.5 / ip_ratio=1.40 / aq=1:1.00
Default : Да
Forced : Нет

Аудио
Идентификатор : 2
Формат : AC-3
Формат/Информация : Audio Coding 3
Расширение режима : CM (complete main)
Параметр Endianness формата : Big
Идентификатор кодека : A_AC3
Продолжительность : 1 ч. 46 м.
Вид битрейта : Постоянный
Битрейт : 448 Кбит/сек
Каналы : 6 каналов
Расположение каналов : Front: L C R, Side: L R, LFE
Частота : 48,0 КГц
Битовая глубина : 16 бит
Метод сжатия : С потерями
Размер потока : 342 Мбайт (15%)
Default : Да
Forced : Нет

Текст
Идентификатор : 3
Формат : UTF-8
Идентификатор кодека : S_TEXT/UTF8
Идентификатор кодека/Информация : UTF-8 Plain Text
Default : Да
Forced : Нет
Во время выпуска новостей репортер говорит, что Маркс родился не в Америке, а в Северной Ирландии. Исполняющий роль Маркса Лиам Нисон родился в Северной Ирландии.
Часы, которые носит герой Лиама Нисона, — это Casio WV58A-1AV Wave Ceptor.
Около 200 человек массовки принимали участие в съемках.
Самолет в фильме — это Boeing 767-300.
Когда самолет выравнивается после резкого снижения до 8000 футов, в салоне самолета невесомость. Такой эффект возможен только в том случае, когда самолет начинает резко терять высоту после быстрого подъема.
В начале фильма, когда Билл заходит в кабину самолета, можно заметить рычаги от четырех двигателей. Однако, когда самолет показывают снаружи, видно, что двигателей всего два.
Когда Билл курит в ванной в первый раз, можно заметить, что он курит сигареты несуществующей марки. Когда позже в фильме он опять курит, видно, что это Marlboro.
Билл говорит, что подозреваемый, который совершал звонки, будет отправлен в федеральную тюрьму по прибытии в Лондон. В Великобритании нет федеральных правоохранительных органов. Его бы встретили столичная полиция и служба пограничного контроля Великобритании.
В начале фильма Джен и Билл заказывают напитки, сидя в самолете. Стюардесса приносит джин с тоником и воду и ставит их в подстаканники. В следующем кадре напитков уже нет.
Федеральные агенты не проходят через ту же процедуру досмотра в аэропорту, что и гражданские, как это показывается в фильме.
Во всех сценах у истребителей включен форсаж. Ни одному истребителю нет необходимости включать форсаж, чтобы лететь со скоростью 0,8 Маха рядом с коммерческим авиалайнером. Также в сцене буксировки самолета включен фонарь у носового колеса, который бы просто ослепил водителя буксира.
В воздушном пространстве Исландии самолет не сопровождался бы истребителями Eurofighter Typhoon. Эти истребители были заменены на американские F-15s.
Когда самолет находится на высоте 8000 футов, Билл (причем вопреки законам физики) пролетает через салон самолета, хватая пистолет и стреляя в процессе полета, однако его цель при этом остается совершенно неподвижной.
Скриншоты:


Время раздачи: С 10.00 до 23.00
[NNM-Club.me]_NonStop.2014.HDRip.x264.mkv.torrent
 Торрент: Платиновая раздача  Зарегистрирован
 
Скачать


Примагнититься
 Зарегистрирован:   30 Май 2014 17:25:25
 Размер:   2.2 GB  (
 Рейтинг:   4.8 (Голосов: 209)
 Поблагодарили:   1166
 Проверка:   Оформление проверено модератором 30 Май 2014 18:46:55
Как cкачать  ·  Как раздать  ·  Правильно оформить  ·  Поднять ратио!  
proEtt
Только чтение
Стаж: 11 лет
Сообщений: 342
Ratio: 15.965
Раздал: 4.838 TB
100%
Откуда: Забулдыгово
philippines.gif
опять смски на шпионском...
trolester
Стаж: 12 лет
Сообщений: 14
Ratio: 0.778
73.99%
Спасибо, очень понравился фильм, сюжет отличный!!
jokerstan
Стаж: 14 лет 11 мес.
Сообщений: 43
Ratio: 116.831
Раздал: 54.31 TB
Поблагодарили: 1075
100%
russia.gif
Завязка интересная, развязка не очень. Можно было сделать куда мудренее.
Rognorock
Стаж: 11 лет 8 мес.
Сообщений: 10
Ratio: 0.99
100%
очень долго и нудно на 3+ фильм не о чём
gmlVSV
Стаж: 13 лет 7 мес.
Сообщений: 602
Ratio: 25.505
24.96%
Откуда: Гомель
belarus.gif
а мне понравилось)
трезорыч
Стаж: 11 лет 11 мес.
Сообщений: 2713
Ratio: 53.992
100%
Откуда: Из Интернета
russia.gif
Отличный триллерок, смотрел не отрываясь ! Спасибо ! :шок:
DearDiary
Стаж: 12 лет 11 мес.
Сообщений: 29
Ratio: 5.509
100%
russia.gif
Фильм бомба! Смотрела не отрываясь. Лиам Нисон как всегда жжет!
legrante
Стаж: 13 лет 3 мес.
Сообщений: 100
Ratio: 3.886
3.19%
krevedko.png
фильм шикарен, но самая концовка (когда самолёт падал) - вопреки половине законов физики - всё впечатление испортила.
Bobonah
Стаж: 12 лет 4 мес.
Сообщений: 15
Ratio: 29.594
100%
Откуда: СПб
russia.gif
Смотрел не отрываясь. В принципе не плохое кино, но расклад во второй половине фильма показался банальниньким. И конечно же чувство штампезности не покидало меня О нет
nikkyy177
Стаж: 11 лет 3 мес.
Сообщений: 4
Ratio: 1.296
50%
Хороший фильм.
Большую часть времени держит в напряжении и заставляет быть внимательным вместе с главным героем ))
Pepelats 6
Стаж: 12 лет 2 мес.
Сообщений: 20
Ratio: 7.541
100%
СМС телевизор не подхватил ни какие!т.е перевод.
koleyrii
 
Стаж: 14 лет 8 мес.
Сообщений: 934
Ratio: 10.372
Поблагодарили: 169
100%
Откуда: Строгинский мост
russia.gif
История достаточно интересная, но как-то всё сумбурно, скомкано. Посмотреть стоит, в коллекцию - нет.
P.S. Мог получиться отличный триллер - актеры достойные, задумка интересная - но что-то нехватат...
А жаль... :незнает:
Logf
Стаж: 13 лет 6 мес.
Сообщений: 6
Ratio: 1.26
8.5%
russia.gif
Порадовал фильм
Isai29
Стаж: 11 лет 9 мес.
Сообщений: 36
Ratio: 1.338
100%
Спасибо, очень понравился фильм, сюжет отличный!!
И смотрел не отрываясь, и конечно же Лиам Нисон как всегда классен!
Показать сообщения:   
Начать новую тему   Ответить на тему    Торрент-трекер NNM-Club -> Зарубежное кино -> Зарубежные Фильмы (SD) Часовой пояс: GMT + 3
Страницы:  1, 2  След.
Страница 1 из 2