Классический форум-трекер
canvas not supported
Нас вместе: 4 232 306

Профессор и призрачный убийца / The Ritual Killer (2023) WEB-DL [H.265/2160p] [4K, SDR, 8-bit] [UKR / Eng Sub]


 
 
RSS
Начать новую тему   Ответить на тему    Торрент-трекер NNM-Club -> Зарубежное кино -> Фильмы с переводом на др. языках
Автор Сообщение
buba5473 ®
Стаж: 13 лет
Сообщений: 1298
Ratio: 661.371
Поблагодарили: 156877
100%
Откуда: Новосибирск
russia.gif
Профессор и призрачный убийца / The Ritual Killer (2023) WEB-DL [H.265/2160p]
Производство: США / Black Diamond Films, Iervolino & Lady Bacardi Entertainment, Iervolino Entertainment, March On Productions, Wonderfilm Media
Жанр: триллер, криминал, детектив

Режиссер: Джордж Галло
Продюсер: Крис Артур, Моника Бакарди, Андреа Иерволино
Актеры: Коул Хаузер, Морган Фриман, Мюриэль Хилейр, Вернон Дэвис, Брайан Курландер, Петер Стормаре, Люк Стратт-МакКлюр, Маюми Роллер, Талия Ассераф, Коуди Леммон

Описание:
Полиции разных стран сталкиваются с серией загадочных и жестоких убийств, похожих на ритуальные. Расследования неизменно заходят в тупик, поскольку убийца исчезает с места преступления, словно призрак. Взявшись за дело, детектив Бойд знакомится с университетским профессором Мэклзом, изучающим древние магические культы, в которых для получения поддержки тёмных сил практикуются человеческие жертвоприношения. Теперь профессору предстоит окунуться в глубины психологии убийц и раскрыть тайну, стоящую за жестокими преступлениями.


Возраст: 16+ (зрителям, достигшим 16 лет)

Релиз от: CMRG

Продолжительность: 01:31:36
Качество видео: WEB-DL
Перевод: Дублированный (CINEMAKER)
Язык озвучки: украинский
Субтитры: английские (Full, SDH)

Видео: HEVC/H.265, 3840x1600, ~14,3 Mbps
Аудио 1: AC3, 6 ch, 448 Kbps (украинский)
Аудио 2: E-AC3, 6 ch, 640 Kbps (английский)

Общее
Уникальный идентификатор : 144395576345806830204576583667733786747 (0x6CA193910E97F7A05C01B5373700707B)
Полное имя : /export/all_movies/Фильмы/Иностранные/Профессор и призрачный убийца (The Ritual Killer).mkv
Формат : Matroska
Версия формата : Version 4
Размер файла : 9,84 Гбайт
Продолжительность : 1 ч. 31 м.
Общий поток : 15,4 Мбит/сек
Частота кадров : 23,976 кадра/сек
Название фильма : Профессор и призрачный убийца / The Ritual Killer
Кодирование произвёл : CMRG
Дата выпуска : 2023
Дата кодирования : 2023-04-22 04:29:17 UTC
Программа кодирования : mkvmerge v71.1.0 ('Fortitude') 64-bit
Библиотека кодирования : libebml v1.4.4 + libmatroska v1.7.1
Обложка : Yes
Attachments : cover.jpg
Released by : Buba5473 for NNM-Club

Видео
Идентификатор : 1
Формат : HEVC
Формат/Информация : High Efficiency Video Coding
Профиль формата : Main@L5@Main
Идентификатор кодека : V_MPEGH/ISO/HEVC
Продолжительность : 1 ч. 31 м.
Битрейт : 14,3 Мбит/сек
Ширина : 3 840 пикселей
Высота : 1 600 пикселей
Соотношение сторон : 2,40:1
Режим частоты кадров : Постоянный
Частота кадров : 23,976 (24000/1001) кадра/сек
Цветовое пространство : YUV
Субдискретизация насыщенности : 4:2:0
Битовая глубина : 8 бит
Бит/(Пиксели*Кадры) : 0.097
Размер потока : 9,14 Гбайт (93%)
Заголовок : The.Ritual.Killer.2023.2160p.AMZN.WEB-DL.DDP5.1.H.265-CMRG[TGx]
Язык : zxx
Default : Нет
Forced : Нет
Цветовой диапазон : Limited
Основные цвета : BT.709
Характеристики трансфера : BT.709
Коэффициенты матрицы : BT.709

Аудио #1
Идентификатор : 2
Формат : AC-3
Формат/Информация : Audio Coding 3
Коммерческое название : Dolby Digital
Идентификатор кодека : A_AC3
Продолжительность : 1 ч. 31 м.
Вид битрейта : Постоянный
Битрейт : 448 Кбит/сек
Каналы : 6 каналов
Channel layout : L R C LFE Ls Rs
Частота : 48,0 КГц
Частота кадров : 31,250 кадров/сек (1536 SPF)
Метод сжатия : С потерями
Задержка видео : 12 мс.
Размер потока : 293 Мбайт (3%)
Заголовок : Перевод: Профессиональный дублированный | CINEMAKER
Язык : Ukrainian (UA)
Service kind : Complete Main
Default : Да
Forced : Нет

Аудио #2
Идентификатор : 3
Формат : E-AC-3
Формат/Информация : Enhanced AC-3
Коммерческое название : Dolby Digital Plus
Идентификатор кодека : A_EAC3
Продолжительность : 1 ч. 31 м.
Вид битрейта : Постоянный
Битрейт : 640 Кбит/сек
Каналы : 6 каналов
Channel layout : L R C LFE Ls Rs
Частота : 48,0 КГц
Частота кадров : 31,250 кадров/сек (1536 SPF)
Метод сжатия : С потерями
Размер потока : 419 Мбайт (4%)
Язык : English (US)
Service kind : Complete Main
Default : Нет
Forced : Нет

Текст #1
Идентификатор : 4
Формат : UTF-8
Идентификатор кодека : S_TEXT/UTF8
Идентификатор кодека/Информация : UTF-8 Plain Text
Продолжительность : 1 ч. 20 м.
Битрейт : 47 бит/сек
Частота кадров : 0,208 кадр/сек
Count of elements : 1005
Размер потока : 27,7 Кбайт (0%)
Язык : English (US)
Default : Да
Forced : Нет

Текст #2
Идентификатор : 5
Формат : UTF-8
Идентификатор кодека : S_TEXT/UTF8
Идентификатор кодека/Информация : UTF-8 Plain Text
Продолжительность : 1 ч. 25 м.
Битрейт : 52 бит/сек
Частота кадров : 0,231 кадр/сек
Count of elements : 1185
Размер потока : 32,6 Кбайт (0%)
Заголовок : SDH
Язык : English (US)
Default : Нет
Forced : Нет

XMP
Xmp.video.FileName : /export/all_movies/Фильмы/Иностранные/Профессор и призрачный убийца (The Ritual Killer).mkv
Xmp.video.FileSize : 1879.44
Xmp.video.MimeType : video/matroska
Xmp.video.EBMLVersion : 1
Xmp.video.EBMLReadVersion : 1
Xmp.video.DocType : matroska
Xmp.video.DocTypeVersion : 4
Xmp.video.DocTypeReadVersion : 2
Xmp.video.TimecodeScale : 0.001
Xmp.video.MuxingApp : libebml v1.4.4 + libmatroska v1.7.1
Xmp.video.WritingApp : mkvmerge v71.1.0 ('Fortitude') 64-bit
Xmp.video.Duration : 5495712
Xmp.video.DateUTC : 703830557
Xmp.video.Title : Профессор и призрачный убийца / The Ritual Killer
Xmp.video.TotalStream : 6
Xmp.video.DefaultOn : No
Xmp.video.TrackLacing : No
Xmp.video.TrackLang : zxx
Xmp.video.Codec : V_MPEGH/ISO/HEVC
Xmp.video.FrameRate : 23.976
Xmp.video.AspectRatio : 1:1
H.265/HEVC (High Efficiency Video Coding) - это новый стандарт кодирования видео.
*Рипы в фомате HEVC, в настоящее время поддерживается не всеми аппаратными проигрывателями.
*Для корректного воспроизведения может потребоваться обновление ПО.
*Стандарт H.265/HEVC является логическим продолжением стандарта H.264/AVC (Advanced Video Coding), и характеризуется более эффективными алгоритмами сжатия, а также поддержкой высокого разрешения вплоть до 8K UHD (8192x4320). Первая версия стандарта H.265 была опубликована в начале 2013 года.

Любителям решения из коробки - установить последнюю версию на выбор:
Media Player Classic - Black Edition (MPC-BE)
VLC media player
Daum Pot Player
GOM Media Player

Любителям WMP и других плееров, использующих по умолчанию для воспроизведения системные кодеки+сплитеры - установить K-Lite Codec Pack версии 10.1.0 и выше.
Любимые плееры, не использующии по умолчанию для воспроизведения системные кодеки+сплитеры, нужно перенастроить на использование оных.
Скриншоты:


Все одноименные релизы в Клубе

Время раздачи: с 11:00 до 21:00 по Новосибирску (UTC +7) (минимум до появления первых 3-5 скачавших)
[NNMClub.to]_Ritual_Killer.torrent
 Торрент: Платиновая раздача  Зарегистрирован
 
Скачать


Примагнититься
 Зарегистрирован:   22 Апр 2023 12:55:46
 Размер:   9.84 GB  (
 Рейтинг:   3.2 (Голосов: 19)
 Поблагодарили:   67
 Проверка:   Оформление проверено модератором 22 Апр 2023 13:18:16
Как cкачать  ·  Как раздать  ·  Правильно оформить  ·  Поднять ратио!  
ZeePRO
Стаж: 17 лет 1 мес.
Сообщений: 651
Ratio: 12.217
Раздал: 127.1 TB
Поблагодарили: 5
61.83%
Откуда: Москва
russia.gif
Трудно поверить, но когда-то режиссёр этого фильма написал невероятный, потрясающий, шикарнейший сценарий к фильму, который должен быть в любой видеоколлекции. Пишу по-английски, потому что варианты перевода названия разные были: "Midnight Run" (1988).

"Ты делаешь лакмусовую конфигурацию?" :подмигивание: А про агента Алонзо Мозли вообще молчу!

_________________
Всё, что нас убивает, делает нас мертвее.
300 Mbps 300 Mbps 24/7
nord136
Стаж: 8 лет 7 мес.
Сообщений: 33
Ratio: 6.604
64.31%
«Успеть до полуночи» (англ. Midnight Run) — кинофильм режиссёра Мартина Бреста, вышедший на экраны в 1988 году.
Gamma_Artel
Стаж: 4 года
Сообщений: 6
Ratio: 2.519
Поблагодарили: 1
0.54%
Язык озвучки украинский)) сильно
e_simonov
Стаж: 14 лет 8 мес.
Сообщений: 70
Ratio: 12.509
100%
russia.gif
Озвучка на самом красивом и могучем планируется?
buba5473 ®
Стаж: 13 лет
Сообщений: 1298
Ratio: 661.371
Поблагодарили: 156877
100%
Откуда: Новосибирск
russia.gif
Есть от музобоза, но я ее запарился прикручивать + там две вставки иксбет прямо поверх ориг звука. И, судя по кинопоиску, есть профессиональная. Но с ней нашел только трейлер на "Вконтакте"

_________________
HEVC fun
Показать сообщения:   
Начать новую тему   Ответить на тему    Торрент-трекер NNM-Club -> Зарубежное кино -> Фильмы с переводом на др. языках Часовой пояс: GMT + 3
Страница 1 из 1